Товарищеский матч - 2016 / Friendly / Гранада – Севилья / Bein Sports La Liga HD [02.08.2016, 1080i, H.264, ES, HDTV, SAT]

Ответить на тему

Автор Сообщение

K. Valera


Стаж: 4 года 7 месяцев

Сообщений: 782

Украина

Торрент-статистика

post 03-Авг-2016 02:12

Quote


Товарищеский матч - 2016 / Гранада – Севилья / Bein Sports La Liga HD

Год выпуска: 02.08.2016
Вид : Футбол
Релиз:
Aвтор рипа: K. Valera
Продолжительность: *
Канал:
Комментарий: Профессиональный
Язык комментариев: Испанский
Качество: HDTV / Формат: *.ts / Видео Кодек: AVC / Аудио Кодек: MPEG Audio, AC-3
Видео: 1920x1080 (16/9), 25,000 fps, 6 720 Kbps
Аудио 1: 192 Kbps, 48 KHz, Dolby AC-3 2.0 channels Испанский
Аудио 2: 192 Kbps, 48 KHz, Dolby AC-3 2.0 channels Испанский
Аудио 1: 128 Kbps, 48 KHz, MPEG Audio 2.0 channels
Аудио 2: 128 Kbps, 48 KHz, MPEG Audio 2.0 channels
Запись видео:
Программа корректировки видео: Cypheros TS-Doctor ver. 1.2.22
<< 00:47:56 + 00:57:54 >>
Пока качаешь, слушай - ar Morow.com ! The Prog Radio ! The Best Progressive Rock of Yesterday and Today... ar

Код:

General
ID                             : 1056 (0x420)
Complete name                  : D:\111\Товарищеский матч 2016 Гранада – Севилья Bein Sports La Liga HD\01. Granada – Sevilla BEIN LALIGA.ts
Format                         : MPEG-TS
File size                      : 2.59 GiB
Duration                       : 47mn 56s
Overall bit rate mode          : Variable
Overall bit rate               : 7 749 Kbps

Video
ID                             : 167 (0xA7)
Menu ID                        : 29967 (0x750F)
Format                         : AVC
Format/Info                    : Advanced Video Codec
Format profile                 : High@L4
Format settings, CABAC         : Yes
Format settings, ReFrames      : 4 frames
Format settings, GOP           : M=8, N=24
Codec ID                       : 27
Duration                       : 47mn 55s
Bit rate                       : 6 720 Kbps
Width                          : 1 920 pixels
Height                         : 1 080 pixels
Display aspect ratio           : 16:9
Frame rate                     : 25.000 fps
Color space                    : YUV
Chroma subsampling             : 4:2:0
Bit depth                      : 8 bits
Scan type                      : MBAFF
Scan order                     : Top Field First
Bits/(Pixel*Frame)             : 0.130
Stream size                    : 2.25 GiB (87%)
Encryption                     : Nagravision
Color range                    : Limited
Color primaries                : BT.709
Transfer characteristics       : BT.709
Matrix coefficients            : BT.709

Audio #1
ID                             : 120 (0x78)
Menu ID                        : 29967 (0x750F)
Format                         : AC-3
Format/Info                    : Audio Coding 3
Mode extension                 : CM (complete main)
Format settings, Endianness    : Big
Codec ID                       : 6
Duration                       : 47mn 56s
Bit rate mode                  : Constant
Bit rate                       : 192 Kbps
Channel(s)                     : 2 channels
Channel positions              : Front: L R
Sampling rate                  : 48.0 KHz
Compression mode               : Lossy
Delay relative to video        : -901ms
Stream size                    : 65.8 MiB (2%)
Language                       : Spanish
Language, more info            : Clean effects
Encryption                     : Nagravision

Audio #2
ID                             : 121 (0x79)
Menu ID                        : 29967 (0x750F)
Format                         : AC-3
Format/Info                    : Audio Coding 3
Mode extension                 : CM (complete main)
Format settings, Endianness    : Big
Codec ID                       : 6
Duration                       : 47mn 56s
Bit rate mode                  : Constant
Bit rate                       : 192 Kbps
Channel(s)                     : 2 channels
Channel positions              : Front: L R
Sampling rate                  : 48.0 KHz
Compression mode               : Lossy
Delay relative to video        : -918ms
Stream size                    : 65.8 MiB (2%)
Language                       : dos
Language, more info            : Clean effects
Encryption                     : Nagravision

Audio #3
ID                             : 122 (0x7A)
Menu ID                        : 29967 (0x750F)
Format                         : MPEG Audio
Format version                 : Version 1
Format profile                 : Layer 2
Mode                           : Joint stereo
Codec ID                       : 4
Duration                       : 47mn 56s
Bit rate mode                  : Constant
Bit rate                       : 128 Kbps
Channel(s)                     : 2 channels
Sampling rate                  : 48.0 KHz
Compression mode               : Lossy
Delay relative to video        : -911ms
Stream size                    : 43.9 MiB (2%)
Encryption                     : Nagravision

Audio #4
ID                             : 123 (0x7B)
Menu ID                        : 29967 (0x750F)
Format                         : MPEG Audio
Format version                 : Version 1
Format profile                 : Layer 2
Mode                           : Joint stereo
Codec ID                       : 4
Duration                       : 47mn 55s
Bit rate mode                  : Constant
Bit rate                       : 128 Kbps
Channel(s)                     : 2 channels
Sampling rate                  : 48.0 KHz
Compression mode               : Lossy
Delay relative to video        : -781ms
Stream size                    : 43.9 MiB (2%)
Encryption                     : Nagravision

Код:

-23:50:21.920 ; 00:00:00.000 ; 2
-10:55:13.848 ; 00:00:00.000 ; 2
-10:55:13.848 ; 00:00:00.000 ; 4
-10:55:13.848 ; 00:00:00.000 ; 2
-10:55:13.848 ; 00:00:00.000 ; 2
-10:55:13.848 ; 00:00:00.000 ; 2
-10:55:13.848 ; 00:00:00.000 ; 2
-10:55:13.848 ; 00:00:00.000 ; 4
-10:55:13.848 ; 00:00:00.000 ; 2
-10:55:13.848 ; 00:00:00.000 ; 2
-10:55:13.848 ; 00:00:00.000 ; 2


Код:

-11:54:36.279 ; 00:00:00.015 ; 4
-11:54:36.263 ; 00:00:00.000 ; 3
-11:54:36.263 ; 00:00:00.000 ; 2
-11:54:36.263 ; 00:00:00.000 ; 5
-11:54:36.263 ; 00:00:00.000 ; 3
-11:54:36.263 ; 00:00:00.000 ; 3
-11:54:36.263 ; 00:00:00.000 ; 4
-11:54:36.263 ; 00:00:00.000 ; 4
-11:54:36.263 ; 00:00:00.000 ; 2
-11:54:36.263 ; 00:00:00.000 ; 2
-11:54:36.263 ; 00:00:00.000 ; 3
-11:54:36.263 ; 00:00:00.000 ; 2
Скриншоты



_________________
webmoney: R102437980674, U865336828210, Bitcoin: 1C5RGE4438bq3VfVUEfcw63rmYrb6Sgr29. Файлы не конвертирую. Готов реанимировать почти все свои раздачи.
Profile PM
Ответить на тему