Товарищеский матч - 2016 / Friendly / Фиорентина – Байер 04 Леверкузен / Fox Sports 2 HD [04.08.2016, HD, 1080i, H264, DUT, SAT]

Ответить на тему

Автор Сообщение

K. Valera


Стаж: 4 года 7 месяцев

Сообщений: 781

Украина

Торрент-статистика

post 05-Авг-2016 02:33

Quote


Товарищеский матч - 2016 / Friendly / Фиорентина – Байер 04 Леверкузен / Fox Sports 2 HD




Год выпуска: 04.08.2016
Вид : Футбол
Релиз:
Aвтор рипа: K. Valera
Продолжительность: *
Канал:
Комментарий: Профессиональный
Язык комментариев: Нидерландский
Качество: HDTV / Формат: *.ts / Видео Кодек: AVC / Аудио Кодек: MPEG
Видео: 1920x1080 (16/9), 25,000 fps, 6 012 Kbps
Аудио: 192 Kbps, 48 KHz, MPEG mp2 2.0 channels (Dutch)
Запись видео:
Программа корректировки видео: Cypheros TS-Doctor ver. 1.2.22
<< 00:53:13 + 00:48:59 >>
Пока качаешь, слушай - ar Morow.com ! The Prog Radio ! The Best Progressive Rock of Yesterday and Today... ar

Код:

General
ID                             : 3225 (0xC99)
Complete name                  : D:\111\Товарищеский матч 2016 Фиорентина – Байер Л. Fox Sports 2 HD\01. Fiorentina – Leverkusen.ts
Format                         : MPEG-TS
File size                      : 2.43 GiB
Duration                       : 53mn 12s
Overall bit rate mode          : Variable
Overall bit rate               : 6 529 Kbps

Video
ID                             : 520 (0x208)
Menu ID                        : 21045 (0x5235)
Format                         : AVC
Format/Info                    : Advanced Video Codec
Format profile                 : High@L4
Format settings, CABAC         : Yes
Format settings, ReFrames      : 4 frames
Format settings, GOP           : M=4, N=28
Codec ID                       : 27
Duration                       : 53mn 12s
Bit rate                       : 6 012 Kbps
Width                          : 1 920 pixels
Height                         : 1 080 pixels
Display aspect ratio           : 16:9
Frame rate                     : 25.000 fps
Standard                       : Component
Color space                    : YUV
Chroma subsampling             : 4:2:0
Bit depth                      : 8 bits
Scan type                      : Interlaced
Scan order                     : Top Field First
Bits/(Pixel*Frame)             : 0.116
Stream size                    : 2.23 GiB (92%)
Encryption                     : TPS-Crypt  or Viaccess
Color range                    : Limited
Color primaries                : BT.709
Transfer characteristics       : BT.709
Matrix coefficients            : BT.709

Audio
ID                             : 108 (0x6C)
Menu ID                        : 21045 (0x5235)
Format                         : MPEG Audio
Format version                 : Version 1
Format profile                 : Layer 2
Codec ID                       : 4
Duration                       : 53mn 12s
Bit rate mode                  : Constant
Bit rate                       : 192 Kbps
Channel(s)                     : 2 channels
Sampling rate                  : 48.0 KHz
Compression mode               : Lossy
Delay relative to video        : 42ms
Stream size                    : 73.1 MiB (3%)
Language                       : Dutch
Encryption                     : TPS-Crypt  or Viaccess
Скриншоты



_________________
webmoney: R102437980674, U865336828210, Bitcoin: 1C5RGE4438bq3VfVUEfcw63rmYrb6Sgr29. Файлы не конвертирую. Готов реанимировать почти все свои раздачи.
Profile PM
Ответить на тему