Товарищеский матч 2016 / Friendly / Тоттенхэм (Лондон, Англия) - Интер (Милан, Италия) / Sky Calcio HD [05.08.2016, 720p, H.264, IT, IPTV]

Ответить на тему

Автор Сообщение

bessiaeb


Стаж: 5 лет 10 месяцев

Сообщений: 70

Откуда: Kosovo

Албания

Торрент-статистика

post 06-Авг-2016 00:48

Quote


Товарищеский матч 2016 / Friendly / Тоттенхэм - Интер / Sky Calcio HD

Вид спорта: Футбол

Дата/Год выпуска релиза: 2016

Язык комментариев: итальянский

Качество: IPTV
Формат видео: MKV
Видео: H.264, 1280x768, ~1.8mbps
Аудио: AAC, 128 Kbps
Продолжительность: 1h 40m

Код:

General
Unique ID                   : 250520829708898393386392557935496204418 (0xBC788E88039B4E8D96301883956B1082)
Complete name               : D:\INTER\Season 2016-17\Pre Season\20160805 Tottenham vs Inter\20160805 Friendly Tottenham vs Inter 720p WEB-DL x264-iNTERMEDiA.mkv
Format                      : Matroska
Format version              : Version 4 / Version 2
File size                   : 1.27 GiB
Duration                    : 1h 40mn
Overall bit rate            : 1 812 Kbps
Encoded date                : UTC 2016-08-05 19:02:19
Writing application         : mkvmerge v8.3.0 ('Over the Horizon') 32bit
Writing library             : libebml v1.3.1 + libmatroska v1.4.2

Video
ID                          : 1
Format                      : AVC
Format/Info                 : Advanced Video Codec
Format profile              : High@L4
Format settings, CABAC      : Yes
Format settings, ReFrames   : 2 frames
Codec ID                    : V_MPEG4/ISO/AVC
Duration                    : 1h 40mn
Bit rate                    : 1 678 Kbps
Width                       : 1 280 pixels
Height                      : 720 pixels
Display aspect ratio        : 16:9
Frame rate mode             : Constant
Frame rate                  : 25.000 fps
Color space                 : YUV
Chroma subsampling          : 4:2:0
Bit depth                   : 8 bits
Scan type                   : Progressive
Bits/(Pixel*Frame)          : 0.073
Stream size                 : 1.18 GiB (93%)
Default                     : Yes
Forced                      : No

Audio
ID                          : 2
Format                      : AAC
Format/Info                 : Advanced Audio Codec
Format profile              : LC
Codec ID                    : A_AAC
Duration                    : 1h 40mn
Bit rate                    : 132 Kbps
Channel(s)                  : 2 channels
Channel positions           : Front: L R
Sampling rate               : 48.0 KHz
Frame rate                  : 46.875 fps (1024 spf)
Compression mode            : Lossy
Stream size                 : 94.3 MiB (7%)
Default                     : Yes
Forced                      : No
6-1
Profile PM
Ответить на тему