Товарищеский матч 2016 / Россия - Гана / Sky Sport HD [06.09.2016, 720p, H264, ITA, HDTV]

Ответить на тему

Автор Сообщение

arenasport


Стаж: 3 месяца 23 дня

Сообщений: 110

Россия

Торрент-статистика

post 06-Сен-2016 22:07

Quote


Россия - Гана

Год выпуска: 06.09.2016
Вид спорта: Футбол
Продолжительность: ***
Комментарий: Профессиональный
Язык комментариев: Итальянский

Качество: HDTV
Формат: TS
Видео кодек: H.264
Аудио кодек: AC3
Видео: AVC, 1280x720 (16:9), 50 fps, 4050 Kbps
Аудио #1: AAC, 48.0 KHz, 2 ch, 128 Kbps, CBR
1-0




p.s. рекламу не всю порезал в конце матчей, так что не ругайте ab
Profile PM

CSKAfan


Стаж: 3 года 3 месяца

Сообщений: 5180

Казахстан

Торрент-статистика

post 06-Сен-2016 23:05 (спустя 57 минут)

Quote


arenasport
сами кодируете? Почему формат TS?

_________________
QIWI 77759946920

Чтобы поднять рейтинг нажимайте эту ссылку раз в сутки http://rgfootball.net/adv.php и следите за рейтингом!
Profile PM

arenasport


Стаж: 3 месяца 23 дня

Сообщений: 110

Россия

Торрент-статистика

post 06-Сен-2016 23:30 (спустя 25 минут)

Quote


CSKAfan писал(а):

arenasport
сами кодируете? Почему формат TS?
Это IPTV, в которое поступает поток ts и который сжимается до 720p и определенного битрейта (на стороне источника). Отсюда и TS. F так я в этом не шарю ab

привел ниже характеристики файла:
General
ID : 1 (0x1)
Complete name : C:\Media Storage\My News Files\2016.09.06.Friendly.Russia.v.Ghana.Sky.Sport\2016.09.06.Friendly.Russia.v.Ghana.Sky.Sport.t1.ts
Format : MPEG-TS
File size : 1.81 GiB
Duration : 59mn 23s
Overall bit rate mode : Variable
Overall bit rate : 4 370 Kbps

Video
ID : 256 (0x100)
Menu ID : 1 (0x1)
Format : AVC
Format/Info : Advanced Video Codec
Format profile : High@L4.1
Format settings, CABAC : Yes
Format settings, ReFrames : 2 frames
Format settings, GOP : M=3, N=24
Codec ID : 27
Duration : 59mn 23s
Bit rate : 4 025 Kbps
Width : 1 280 pixels
Height : 720 pixels
Display aspect ratio : 16:9
Frame rate : 50.000 fps
Color space : YUV
Chroma subsampling : 4:2:0
Bit depth : 8 bits
Scan type : Progressive
Bits/(Pixel*Frame) : 0.087
Stream size : 1.67 GiB (92%)

Audio
ID : 257 (0x101)
Menu ID : 1 (0x1)
Format : MPEG Audio
Format version : Version 1
Format profile : Layer 2
Codec ID : 3
Duration : 59mn 23s
Bit rate mode : Constant
Bit rate : 128 Kbps
Channel count : 2 channels
Sampling rate : 48.0 KHz
Compression mode : Lossy
Delay relative to video : -40ms
Stream size : 54.4 MiB (3%)

Menu
ID : 4096 (0x1000)
Menu ID : 1 (0x1)
Duration : 59mn 23s
List : 256 (0x100) (AVC) / 257 (0x101) (MPEG Audio)
Service name : Service01
Service provider : FFmpeg
Service type : digital television
Profile PM

CSKAfan


Стаж: 3 года 3 месяца

Сообщений: 5180

Казахстан

Торрент-статистика

post 06-Сен-2016 23:43 (спустя 12 минут)

Quote


arenasport
а как рекламу вырезаете? Есть прога которая вырезает рекламу и можно формат поменять

_________________
QIWI 77759946920

Чтобы поднять рейтинг нажимайте эту ссылку раз в сутки http://rgfootball.net/adv.php и следите за рейтингом!
Profile PM

arenasport


Стаж: 3 месяца 23 дня

Сообщений: 110

Россия

Торрент-статистика

post 06-Сен-2016 23:51 (спустя 7 минут)

Quote


CSKAfan писал(а):

arenasport
а как рекламу вырезаете? Есть прога которая вырезает рекламу и можно формат поменять
написал в лс
Profile PM
Ответить на тему