Товарищеский матч - 2016 / Friendly / Нидерланды – Бельгия / Fox Sports 1 HD [09.11.2016, HD, 1080i, H264, DUT, SAT]

Ответить на тему

Автор Сообщение

K. Valera


Стаж: 4 года 7 месяцев

Сообщений: 781

Украина

Торрент-статистика

post 10-Ноя-2016 11:14

Quote


Товарищеский матч - 2016 / Friendly / Нидерланды – Бельгия / Fox Sports 1 HD




Год выпуска: 09.11.2016
Вид : Футбол
Релиз:
Aвтор рипа: K. Valera
Продолжительность: *
Канал:
Комментарий: Профессиональный
Язык комментариев: Нидерландский
Качество: HDTV / Формат: *.ts / Видео Кодек: AVC / Аудио Кодек: MPEG
Видео: 1920x1080 (16/9), 25,000 fps, 6 005 Kbps
Аудио: 192 Kbps, 48 KHz, MPEG mp2 2.0 channels (Dutch)
Запись видео:
Программа корректировки видео: Cypheros TS-Doctor ver. 1.2.22
<< 01:00:24 + 01:02:20 >>

Код:

General
ID                             : 3202 (0xC82)
Complete name                  : D:\111\Товарищеский матч 2016 Нидерланды – Бельгия Fox Sports 1 HD\01. Netherlands – Belgium FOX Sports.ts
Format                         : MPEG-TS
File size                      : 2.75 GiB
Duration                       : 1h 0mn
Overall bit rate mode          : Variable
Overall bit rate               : 6 521 Kbps

Video
ID                             : 528 (0x210)
Menu ID                        : 6092 (0x17CC)
Format                         : AVC
Format/Info                    : Advanced Video Codec
Format profile                 : High@L4
Format settings, CABAC         : Yes
Format settings, ReFrames      : 3 frames
Codec ID                       : 27
Duration                       : 1h 0mn
Bit rate                       : 6 005 Kbps
Width                          : 1 920 pixels
Height                         : 1 080 pixels
Display aspect ratio           : 16:9
Frame rate                     : 25.000 fps
Standard                       : Component
Color space                    : YUV
Chroma subsampling             : 4:2:0
Bit depth                      : 8 bits
Scan type                      : Interlaced
Scan order                     : Top Field First
Bits/(Pixel*Frame)             : 0.116
Stream size                    : 2.53 GiB (92%)
Encryption                     : TPS-Crypt  or Viaccess
Color range                    : Limited
Color primaries                : BT.709
Transfer characteristics       : BT.709
Matrix coefficients            : BT.709

Audio
ID                             : 224 (0xE0)
Menu ID                        : 6092 (0x17CC)
Format                         : MPEG Audio
Format version                 : Version 1
Format profile                 : Layer 2
Codec ID                       : 4
Duration                       : 1h 0mn
Bit rate mode                  : Constant
Bit rate                       : 192 Kbps
Channel(s)                     : 2 channels
Sampling rate                  : 48.0 KHz
Compression mode               : Lossy
Delay relative to video        : 28ms
Stream size                    : 82.9 MiB (3%)
Language                       : Dutch
Encryption                     : TPS-Crypt  or Viaccess
Скриншоты

_________________
webmoney: R102437980674, U865336828210, Bitcoin: 1C5RGE4438bq3VfVUEfcw63rmYrb6Sgr29. Файлы не конвертирую. Готов реанимировать почти все свои раздачи.
Profile PM
Ответить на тему