Товарищеский матч - 2017 / Friendly / Аль-Иттифак (Саудовская Аравия) – Галатасарай (Турция) / TRT SPOR HD [09.01.2017, 1080i, H.264, TUR, HDTV, SAT]

Ответить на тему

Автор Сообщение

K. Valera


Стаж: 10 лет

Сообщений: 884

Украина

Торрент-статистика

post 10-Янв-2017 14:31

Quote


Товарищеский матч - 2017 / Friendly / Аль-Иттифак (Саудовская Аравия) – Галатасарай (Турция) / TRT SPOR HD



Год выпуска: 09.01.2017
Вид : Футбол
Релиз:
Aвтор рипа: K. Valera
Продолжительность: *
Канал:
Комментарий: Профессиональный
Язык комментариев: Турецкий
Качество: HDTV / Формат: *.ts / Видео Кодек: AVC / Аудио Кодек: MPEG
Видео: 1920x1080 (16/9), 25,000 fps, 9 129 Kbps
Аудио: 192 Kbps, 48 KHz, MPEG, mp2 2.0 channels
Запись видео: Openbox SX6 HD
Программа корректировки видео: Cypheros TS-Doctor ver. 1.2.22
<< 00:55:09 + 00:50:15 >>

Код:

General
ID                             : 31001 (0x7919)
Complete name                  : E:\Товарищеский матч - 2017  Аль-Иттифак – Галатасарай TRT SPOR HD\01. Al-Ettifaq - Galatasaray Hazırlık Karşı.ts
Format                         : MPEG-TS
File size                      : 3.78 GiB
Duration                       : 55mn 9s
Overall bit rate mode          : Variable
Overall bit rate               : 9 807 Kbps

Video
ID                             : 1603 (0x643)
Menu ID                        : 10603 (0x296B)
Format                         : AVC
Format/Info                    : Advanced Video Codec
Format profile                 : High@L4
Format settings, CABAC         : Yes
Format settings, ReFrames      : 4 frames
Codec ID                       : 27
Duration                       : 55mn 8s
Bit rate                       : 9 129 Kbps
Width                          : 1 920 pixels
Height                         : 1 080 pixels
Display aspect ratio           : 16:9
Frame rate                     : 25.000 fps
Color space                    : YUV
Chroma subsampling             : 4:2:0
Bit depth                      : 8 bits
Scan type                      : MBAFF
Scan order                     : Top Field First
Bits/(Pixel*Frame)             : 0.176
Stream size                    : 3.52 GiB (93%)

Audio
ID                             : 1703 (0x6A7)
Menu ID                        : 10603 (0x296B)
Format                         : MPEG Audio
Format version                 : Version 1
Format profile                 : Layer 2
Mode                           : Joint stereo
Mode extension                 : Intensity Stereo + MS Stereo
Codec ID                       : 3
Duration                       : 55mn 9s
Bit rate mode                  : Constant
Bit rate                       : 192 Kbps
Channel(s)                     : 2 channels
Sampling rate                  : 48.0 KHz
Compression mode               : Lossy
Delay relative to video        : 57ms
Stream size                    : 75.7 MiB (2%)
Language                       : Turkish
Скриншоты
3:1

_________________
Bitcoin: 1C5RGE4438bq3VfVUEfcw63rmYrb6Sgr29
Profile PM
Ответить на тему