Товарищеский матч 2013 / Украина - Камерун / Интер [02.06.2013, SD, MPEG, UA, DVB]

Ответить на тему

Автор Сообщение

Динмілчел


Стаж: 6 лет

Сообщений: 10

Украина

Торрент-статистика

post 02-Июн-2013 22:59

Quote



Товарищеский матч 2013 / Украина - Камерун / Интер [06.02.2013]



Год выпуска : 2013
Вид спорта : Футбол
Комментарий : Александр Сукманский, Роман Кадемин
Язык комментариев : Украинский (двухголосый)
Продолжительность : ~ 00:57:06 + 00:56:01
Описание: Украинский футбол - драматичный и непредсказуемый. Мы можем проиграть, когда победа почти в кармане, и побеждаем в безнадежных ситуациях. Чего ждать от матча с одной из сильнейших команд Африки?! Зборная Украины против сборной Камеруна! Смотрим и болеем - в воскресенье на "Интере"!
Релиз специально для


General
Complete name : 1 тайм.mpg
Format : MPEG-PS
File size : 1.65 GiB
Duration : 57mn 6s
Overall bit rate mode : Variable
Overall bit rate : 4 145 Kbps
Video #224
ID : 224 (0xE0)
Format : MPEG Video
Format version : Version 2
Format profile : Main@Main
Format settings, BVOP : Yes
Format settings, Matrix : Custom
Format settings, GOP : Variable
Duration : 57mn 6s
Bit rate mode : Variable
Bit rate : 3 871 Kbps
Maximum bit rate : 15.0 Mbps
Width : 704 pixels
Height : 576 pixels
Display aspect ratio : 4:3
Frame rate : 25.000 fps
Standard : PAL
Color space : YUV
Chroma subsampling : 4:2:0
Bit depth : 8 bits
Scan type : Interlaced
Scan order : Top Field First
Compression mode : Lossy
Bits/(Pixel*Frame) : 0.382
Time code of first frame : 00:00:00:00
Time code source : Group of pictures header
Stream size : 1.54 GiB (93%)
Audio #192
ID : 192 (0xC0)
Format : MPEG Audio
Format version : Version 1
Format profile : Layer 2
Duration : 57mn 6s
Bit rate mode : Constant
Bit rate : 192 Kbps
Channel(s) : 2 channels
Sampling rate : 48.0 KHz
Compression mode : Lossy
Stream size : 78.4 MiB (5%)
Качество видео: DVB
Формат видео: MPEG
Видео кодек: MPEG2
Аудио кодек: MPEG1
Видео: MPEG2 Video 704x576 (4:3) 25.00fps 3 871 Kbps, 0.382 bit/pixel
Аудио: MPEG Audio 48000Hz 2 channels 192 Kbps




Последний раз редактировалось: Динмілчел (2013-06-03 00:34), всего редактировалось 4 раз(а)
Profile PM

zorren1


Стаж: 6 лет

Сообщений: 175

Откуда: Донецк

Россия

Торрент-статистика

post 02-Июн-2013 23:20 (спустя 21 минута)

Quote


шото все встало

_________________
PSN ID RUS : zorren1
Profile PM

zzzaratustra


Стаж: 5 лет 4 месяца

Сообщений: 12

Торрент-статистика

post 03-Июн-2013 00:08 (спустя 48 минут)

Quote


ауууу, есть кто живой ?
Profile PM

soprani


Стаж: 6 лет

Сообщений: 3189

Откуда: Киев, Оболонь

Украина

Торрент-статистика

post 03-Июн-2013 00:15 (спустя 6 минут)

Quote


Ждем 7-го числа, там будет настоящий футбол!!!

_________________
Profile PM

mae-stro


Стаж: 5 лет 4 месяца

Сообщений: 130

Украина

Торрент-статистика

post 03-Июн-2013 00:24 (спустя 8 минут)

Quote


soprani писал(а):

Ждем 7-го числа, там будет настоящий футбол!!!
Будем надеяться.
Profile PM
Ответить на тему