Товарищеский матч 2014 / Friendly / Ливерпуль (Ливерпуль) – Боруссия Д (Дортмунд) / WDR [10.08.2014, DE, 720p, 50 fps, MPEG-TS]

Ответить на тему

Автор Сообщение

Jora879


Стаж: 6 лет

Сообщений: 350

Откуда: остров Святой Елены

О.Святой Елены

Торрент-статистика

post 10-Авг-2014 18:25

Quote


Товарищеский матч 2014 / Friendly / Ливерпуль (Ливерпуль) – Боруссия Д (Дортмунд) / WDR

  • Год Выпуска: 2014
  • Вид Спорта: Футбол
  • Комментарий: Профессиональный
  • Язык Комментария: Немецкий
  • Релиз: Jora879
  • Качество: SAT
  • Формат: MPEG-TS
  • Видео Кодек: Advanced Video Codec
  • Аудио Кодек: MPEG Audio
  • Видео: 1280x720, 50 fps, 9560 kbps
  • Аудио:192 kbps, 48 kHz, 2 ch

Ливерпуль: Миньоле, Джонсон, Ловрен, Шкртел, Манкильо, Хендерсон, Коутиньо, Джан, Стерлинг, Джеррард, Старридж
Запасные: Лейва, Энрике, Ламберт, Туре, Коатес, Аллен, Сусо, Джонс, Сако, Келли, Айб

Боруссия: Ланжерак, Пищек, Шмельцер, Цукалас, Гинтер, Кель, Кирх, Мхитарян, Обамеянг, Рамос, Суботич
Запасные: Бендер, Гросскройц, Дон Вон, Амини, Хофманн, Иммобиле, Бандовски, Бонман, Сарр
> 4-0 <
General
ID : 1 (0x1)
Complete name : S:\Liverpool - Borussia Dortmund.ts
Format : MPEG-TS
File size : 7.48 GiB
Duration : 1h 51mn
Overall bit rate mode : Variable
Overall bit rate : 9 560 Kbps

Video
ID : 256 (0x100)
Menu ID : 1 (0x1)
Format : AVC
Format/Info : Advanced Video Codec
Format profile : High@L4.0
Format settings, CABAC : Yes
Format settings, ReFrames : 4 frames
Format settings, GOP : M=6, N=32
Codec ID : 27
Duration : 1h 51mn
Bit rate : 8 894 Kbps
Width : 1 280 pixels
Height : 720 pixels
Display aspect ratio : 16:9
Frame rate : 50.000 fps
Color space : YUV
Chroma subsampling : 4:2:0
Bit depth : 8 bits
Scan type : Progressive
Bits/(Pixel*Frame) : 0.193
Stream size : 6.95 GiB (93%)

Audio
ID : 257 (0x101)
Menu ID : 1 (0x1)
Format : MPEG Audio
Format version : Version 1
Format profile : Layer 2
Codec ID : 3
Duration : 1h 51mn
Bit rate mode : Constant
Bit rate : 192 Kbps
Channel(s) : 2 channels
Sampling rate : 48.0 KHz
Compression mode : Lossy
Delay relative to video : -1s 389ms
Stream size : 154 MiB (2%)
Language : German

Menu
ID : 4095 (0xFFF)
Menu ID : 1 (0x1)
Duration : 1h 51mn
List : 256 (0x100) (AVC) / 257 (0x101) (MPEG Audio, German)
Language : / German
Service name : Service01
Service provider : FFmpeg
Service type : digital television


Последний раз редактировалось: Jora879 (2014-08-19 15:31), всего редактировалось 7 раз(а)
Profile PM

R2-D2


Стаж: 4 года 11 месяцев

Сообщений: 274

Откуда: Санкт-Петербург

Россия

Торрент-статистика

post 10-Авг-2014 19:24 (спустя 58 минут)

Quote


Язык комментария немецкий? Что-то не нахожу этой строки.
Profile PM

Jora879


Стаж: 6 лет

Сообщений: 350

Откуда: остров Святой Елены

О.Святой Елены

Торрент-статистика

post 10-Авг-2014 19:29 (спустя 4 минуты)

Quote


[10.08.2014, DE, MPEG, TS]
Profile PM

R2-D2


Стаж: 4 года 11 месяцев

Сообщений: 274

Откуда: Санкт-Петербург

Россия

Торрент-статистика

post 10-Авг-2014 19:45 (спустя 16 минут)

Quote


Ну я так и подумал, но всё равно лучше было бы просто язык вписать. А WDR - канал, по-ходу. Заморочено как-то всё, не все поймут.
Profile PM

Jora879


Стаж: 6 лет

Сообщений: 350

Откуда: остров Святой Елены

О.Святой Елены

Торрент-статистика

post 10-Авг-2014 19:51 (спустя 6 минут)

Quote


я только учусь, еще не понял куда тут что вставлять
Profile PM

R2-D2


Стаж: 4 года 11 месяцев

Сообщений: 274

Откуда: Санкт-Петербург

Россия

Торрент-статистика

post 10-Авг-2014 20:02 (спустя 10 минут)

Quote


Jora879, ясно. Спасиб в любом случае.) Просто глянь на другие футбол раздачи. В шапке всегда написан язык комментария и комментатор. Если не русский, наверное, не важно. Вот, например: http://rgfootball.net/viewtopic.php?t=99329

Удачи с раздачами. ad
Profile PM

dav7dbecks


Стаж: 6 лет

Сообщений: 14962

Откуда: там где жизнь ничего не стоит, иногда обретает ценность смерть

СССР

Торрент-статистика

post 13-Авг-2014 15:15 (спустя 2 дня 19 часов)

Quote


Jora879 писал(а):

я только учусь, еще не понял куда тут что вставлять

Код:

[b][i][font="'Courier New'"][align=center][img]http://rgfootball.tv/media/up/137942460228.png[/img] [img]http://rgfootball.tv/media/up/140664414455.png[/img] [img]http://rgfootball.tv/media/up/138217240329.png[/img][/align][hr]
[img=right]http://s7.directupload.net/images/130714/ng43bhl9.jpg[/img]
[size=18][list][*][color=#e00101]Год Выпуска:[/color] [color=#0c5bc6]2014[/color]
[*][color=#0c5bc6]Вид Спорта:[/color] [color=#119e14]Футбол[/color][hr]
[*][color=#e00101]Продолжительность:[/color] [color=#0c5bc6]01:44:14[/color][hr]
[*][color=#119e14]Комментарий:[/color] [color=#e00101]Профессиональный[/color]
[*][color=#0c5bc6]Язык Комментария:[/color] [color=#119e14]Французкий (Одноголосый)[/color][hr]
[*][color=#119e14]Релиз:[/color] [color=#0c5bc6]Jora879:[/color][hr]
[*][color=#0c5bc6]Качество:[/color] [color=#e00101]SAT[/color]
[*][color=#e00101]Формат:[/color] [color=#119e14]MPEG[/color]
[*][color=#119e14]Видео Кодек:[/color] [color=#0c5bc6]MPEG2[/color]
[*][color=#e00101]Аудио Кодек:[/color] [color=#119e14]MPEG1 Layer 2[/color]
[*][color=#119e14]Видео:[/color] [color=#0c5bc6]720x576 (16/9), 25,000fps, 3,4 Мбит/сек[/color]
[*][color=#0c5bc6]Аудио:[/color] [color=#e00101]192 Kbps, 48 KHz, 2 channels[/list][/color][/size][/font][/i][/b][hr]
[spoiler="СОСТАВЫ"][align=center][/align][/spoiler]
[spoiler="СЧЕТ"][align=center][b][font="cursive"][size=24][color=#0c5bc6]>[/color] [color=#f7f8fa]3:1[/color] [color=#0c5bc6]<[/color][/size][/font][/b][/align][/spoiler]
[align=center][img]http://rgfootball.tv/media/up/134712044079.png[/img][hr]
[/align][hr]

_________________
Manchester is Red
голосуйте
Profile PM
Ответить на тему