Чемпионат Мира 2014 / Отборочный турнир / Европа / Группа H / Черногория - Украина / Интер [07.06.2013, SD, MPEG, UA, DVB]

Ответить на тему

Автор Сообщение

Динмілчел


Стаж: 8 лет

Сообщений: 10

Украина

Торрент-статистика

post 07-Июн-2013 23:29

Quote



Чемпионат Мира 2014 / Отборочный турнир / Группа Н / Черногория - Украина / Интер [07.06.2013]



Год выпуска : 2013
Вид спорта : Футбол
Комментарий : Александр Сукманский, Роман Кадемин
Язык комментариев : Украинский (двухголосый)
Описание: В пятницу, 7 июня, сборную Украины ждет сложнейший экзамен - встреча с текущим лидером группы Н в отборе к ЧМ-2014 командой Черногории. Путь в Бразилию лежит через Черногорию - летим на Чемпионат мира или... пролетаем на 4 года? Эта игра решит все!
После нулевой ничьей в товарищеском матче с Камеруном вопросов о готовности "сине-желтой" команды противостоять лидерам меньше не стало.
Впрочем, по словам главного тренера украинской команды Михаила Фоменко, игра с камерунцами дала информацию о том, что нужно исправлять. Правда, времени на исправление ошибок у тренера и его подопечных не так уж и много. Уже 7 июня сборная Украины должна пройти экзамен в Подгорице.
Известно, что рассудит матч немецкий арбитр Мануэль Грефе. Ассистенты арбитра - Торстен Шиффнер и Гвидо Клефе. Резервный арбитр - Флориан Майер.
Напомним, что первый поединок между сборными Украины и Черногории, который состоялся 16 октября прошлого года, закончился со счетом 0:1 в пользу сборной Бранко Брновича.
Релиз специально для
00:52:59 + 00:50:20
<<0-4>>
Черногория: Божович - Волков, Божович, Баша, Павичевич - Зверотич, Пекович, Кечоевич - Йоветич, Вучинич, Касалица.
В запасе остались: Вешович, Бошкович, Бакич, Игуманович, Дамьянович, Бечирай, Кркотич, Николич, Блажич, Делибашич.

Украина: Пятов - Тимощук, Ракицкий, Федецкий - Гусев, Гармаш, Ротань, Эдмар, Коноплянка - Ярмоленко, Зозуля.
Запасные: Ковпак, Бутко, Гречишкин, Олейник, Безус, Худжамов, С.Кравченко, Гоменюк, Хачериди, Селезнев, Селин.
General
Complete name : 1 тайм.mpg
Format : MPEG-PS
File size : 1.39 GiB
Duration : 52mn 59s
Overall bit rate mode : Variable
Overall bit rate : 3 747 Kbps
Video #224
ID : 224 (0xE0)
Format : MPEG Video
Format version : Version 2
Format profile : Main@Main
Format settings, BVOP : Yes
Format settings, Matrix : Custom
Format settings, GOP : Variable
Duration : 52mn 59s
Bit rate mode : Variable
Bit rate : 3 481 Kbps
Maximum bit rate : 15.0 Mbps
Width : 704 pixels
Height : 576 pixels
Display aspect ratio : 4:3
Frame rate : 25.000 fps
Standard : PAL
Color space : YUV
Chroma subsampling : 4:2:0
Bit depth : 8 bits
Scan type : Interlaced
Scan order : Top Field First
Compression mode : Lossy
Bits/(Pixel*Frame) : 0.343
Time code of first frame : 00:00:00:00
Time code source : Group of pictures header
Stream size : 1.29 GiB (93%)
Audio #192
ID : 192 (0xC0)
Format : MPEG Audio
Format version : Version 1
Format profile : Layer 2
Duration : 52mn 59s
Bit rate mode : Constant
Bit rate : 192 Kbps
Channel(s) : 2 channels
Sampling rate : 48.0 KHz
Compression mode : Lossy
Stream size : 72.8 MiB (5%)
Качество видео: DVB
Формат видео: MPEG
Видео кодек: MPEG2
Аудио кодек: MPEG1
Видео: MPEG2 Video 704x576 (4:3) 25.00fps 3 481 Kbps, 0.343 bit/pixel
Аудио: MPEG Audio 48000Hz 2 channels 192 Kbps



Обзор и аналитика матча Черногория - Украина Здесь



Последний раз редактировалось: Динмілчел (2013-06-08 03:09), всего редактировалось 7 раз(а)
Profile PM

Cristiano


Стаж: 7 лет 8 месяцев

Сообщений: 96

Откуда: Киев

Украина

Торрент-статистика

post 08-Июн-2013 00:29 (спустя 1 час)

Quote


Я найщасливіша людина в світі

_________________


Profile PM

pooLVetrum


Стаж: 7 лет 3 месяца

Сообщений: 222

Откуда: Київ

Торрент-статистика

post 08-Июн-2013 00:30 (спустя 32 секунды)

Quote


Один из лучших матчей сборной Украины на выезде наряду с матчем с турками в 2004-ом. Не ожидал от Фоменко такого результата. Браво!
Profile PM

alexmashine


Стаж: 8 лет

Сообщений: 8

Украина

Торрент-статистика

post 08-Июн-2013 00:50 (спустя 20 минут)

Quote


А я сегодня как никогда верил, ЧТО МЫ ПОБЕДИМ!!!
Profile PM

Vulkan


Стаж: 8 лет

Сообщений: 324

Украина

Торрент-статистика

post 08-Июн-2013 01:52 (спустя 1 час 2 минуты)

Quote


А шустер -лайф будет выложен?
Profile PM

Динмілчел


Стаж: 8 лет

Сообщений: 10

Украина

Торрент-статистика

post 08-Июн-2013 01:59 (спустя 6 минут)

Quote


Vulkan писал(а):

А шустер -лайф будет выложен?
Шустер Live это не матч, для себя записал всё...
Profile PM

Vulkan


Стаж: 8 лет

Сообщений: 324

Украина

Торрент-статистика

post 08-Июн-2013 02:09 (спустя 10 минут)

Quote


Так я не про матч.А про программу.Как обзор будет?
Profile PM

Динмілчел


Стаж: 8 лет

Сообщений: 10

Украина

Торрент-статистика

post 08-Июн-2013 02:13 (спустя 3 минуты)

Quote


Vulkan писал(а):

Так я не про матч.А про программу.Как обзор будет?
Могу залить
Profile PM

Vulkan


Стаж: 8 лет

Сообщений: 324

Украина

Торрент-статистика

post 08-Июн-2013 02:34 (спустя 20 минут)

Quote


Буду благодарен.Жду
Profile PM

Динмілчел


Стаж: 8 лет

Сообщений: 10

Украина

Торрент-статистика

post 08-Июн-2013 03:10 (спустя 36 минут)

Quote


Vulkan писал(а):

Буду благодарен.Жду
Обзор и аналитика матча Черногория - Украина Здесь
Profile PM

Vulkan


Стаж: 8 лет

Сообщений: 324

Украина

Торрент-статистика

post 08-Июн-2013 03:52 (спустя 41 минута)

Quote


Спасибо.Скачал
Profile PM

pekan


Стаж: 6 лет 7 месяцев

Сообщений: 18

Откуда: Крым

Россия

Торрент-статистика

post 08-Июн-2013 09:42 (спустя 5 часов)

Quote


наши молодцы! пока смотрел матч 2 раза обрыгался от этих коментаторов)
Profile PM

Comandante


Стаж: 8 лет

Сообщений: 61

Украина

Торрент-статистика

post 08-Июн-2013 09:48 (спустя 5 минут)

Quote


нашим ребятам низкий поклон за матч!
комментаторы долбоебы. послушали бы нтв, узнали бы как люди комментируют. это же убожество.
Profile PM

juralot


Стаж: 6 лет 9 месяцев

Сообщений: 58

Украина

Торрент-статистика

post 08-Июн-2013 20:03 (спустя 10 часов)

Quote


Гнать их в шею!
Profile PM

mata2013


Стаж: 5 лет 10 месяцев

Сообщений: 36

Откуда: Кременчуг

Украина

Торрент-статистика

post 09-Июн-2013 12:46 (спустя 16 часов)

Quote


Рома Безус-красавчик!
Profile PM

skrin13


Стаж: 6 лет 3 месяца

Сообщений: 1

Торрент-статистика

post 09-Июн-2013 18:57 (спустя 6 часов)

Quote


Подскажите пожалуйста, а матчи в разрешении 1080p будут вообще ещё? Или уже не будут выкладывать такое качество!? Заранее спасибо!
Profile PM

Динмілчел


Стаж: 8 лет

Сообщений: 10

Украина

Торрент-статистика

post 10-Июн-2013 13:39 (спустя 18 часов)

Quote


skrin13 писал(а):

Подскажите пожалуйста, а матчи в разрешении 1080p будут вообще ещё? Или уже не будут выкладывать такое качество!? Заранее спасибо!
Этот матч не транслировался нигде в HD (1080i)
Profile PM

Aratt


Стаж: 5 лет 5 месяцев

Сообщений: 2

Откуда: Киев

Украина

Торрент-статистика

post 13-Июл-2013 15:25 (спустя 1 месяц 3 дня)

Quote


Подскажите кто знает, с другими комментаторами есть запись. А то этих с Интера послушать - блевать охота.
Profile PM
Ответить на тему