Про футбол / 2+2 [23.09.2014, 576i, UA-RU, MPEG-TS]

Ответить на тему

Автор Сообщение

Jora879


Стаж: 6 лет

Сообщений: 350

Откуда: остров Святой Елены

О.Святой Елены

Торрент-статистика

post 23-Сен-2014 16:03

Quote


Про футбол / 2+2

    Год Выпуска: 2014
    Вид Спорта: Футбол
    Язык Комментария: Украинский
    Ведущий: Игорь Цыганык

    Продолжительность: 50 м.
    Релиз: Jora879
    Качество: SAT; Формат: MPEG-TS; Видео Кодек: MPEG Video; Аудио Кодек: MPEG Audio
    Видео: 720x576, 25 fps, 4737 Кбит/сек; Аудио: 192 Kbps, 48 KHz, 2 channels

Общее
Идентификатор : 1 (0x1)
Полное имя : про футбол.ts
Формат : MPEG-TS
Размер файла : 1,82 Гбайт
Продолжительность : 50 м.
Режим общего битрейта : Переменный
Общий поток : 5188 Кбит/сек

Видео
Идентификатор : 256 (0x100)
Идентификатор меню : 1 (0x1)
Формат : MPEG Video
Версия формата : Version 2
Профиль формата : Main@Main
Параметр BVOP формата : Да
Параметр матрицы формата : Выборочная
Параметр GOP формата : Variable
Идентификатор кодека : 2
Продолжительность : 50 м.
Вид битрейта : Переменный
Битрейт : 4737 Кбит/сек
Максимальный битрейт : 15,0 Мбит/сек
Ширина : 720 пикселей
Высота : 576 пикселей
Соотношение сторон : 4:3
Частота кадров : 25,000 кадров/сек
Стандарт вещания : PAL
Цветовое пространство : YUV
Субдискретизация насыщенности : 4:2:0
Битовая глубина : 8 бит
Тип развёртки : Чересстрочная
Порядок развёртки : Верхнее поле первое
Метод сжатия : С потерями
Бит/(Пиксели*Кадры) : 0.457
Размер потока : 1,66 Гбайт (91%)

Аудио
Идентификатор : 257 (0x101)
Идентификатор меню : 1 (0x1)
Формат : MPEG Audio
Версия формата : Version 1
Профиль формата : Layer 2
Идентификатор кодека : 3
Продолжительность : 50 м.
Вид битрейта : Постоянный
Битрейт : 192 Кбит/сек
Каналы : 2 канала
Частота : 48,0 КГц
Метод сжатия : С потерями
Задержка видео : -211 мс.
Размер потока : 69,0 Мбайт (4%)
Язык : Ukrainian

Меню
Идентификатор : 4095 (0xFFF)
Идентификатор меню : 1 (0x1)
Продолжительность : 50 м.
Список : 256 (0x100) (MPEG Video) / 257 (0x101) (MPEG Audio, Ukrainian)
Язык : / Ukrainian
Название сервиса : Service01
Поставщик сервиса : FFmpeg
Тип сервиса : digital television
Profile PM

Jora879


Стаж: 6 лет

Сообщений: 350

Откуда: остров Святой Елены

О.Святой Елены

Торрент-статистика

post 23-Сен-2014 16:29 (спустя 25 минут)

Quote


Тренер Кварцяный плохо знает украинский, или мне так показалось.
Profile PM
Ответить на тему