Про футбол / 2+2 [09.11.2014, 576i, UA-RU, MPEG-TS]

Ответить на тему

Автор Сообщение

Jora879


Стаж: 6 лет

Сообщений: 350

Откуда: остров Святой Елены

О.Святой Елены

Торрент-статистика

post 10-Ноя-2014 02:01

Quote


Про футбол / 2+2

    Год Выпуска: 2014
    Вид Спорта: Футбол
    Язык Комментария: Украинский
    Ведущие: Игорь Цыганык, Александра Лобода
    Гости: Олег Венглинский, Игорь Шуховцев

    Продолжительность: 1 ч. 45 м.
    Релиз: Jora879
    Качество: SAT; Формат: MPEG-TS; Видео Кодек: MPEG Video; Аудио Кодек: MPEG Audio
    Видео: 720x576, 25 fps, 4510 Кбит/сек; Аудио: 192 Kbps, 48 KHz, 2 channels

Общее
Идентификатор : 12 (0xC)
Полное имя : N:\про футбол.ts
Формат : MPEG-TS
Размер файла : 3,63 Гбайт
Продолжительность : 1 ч. 45 м.
Режим общего битрейта : Переменный
Общий поток : 4949 Кбит/сек

Видео
Идентификатор : 6121 (0x17E9)
Идентификатор меню : 6120 (0x17E8)
Формат : MPEG Video
Версия формата : Version 2
Профиль формата : Main@Main
Параметр BVOP формата : Да
Параметр матрицы формата : Выборочная
Параметр GOP формата : Variable
Идентификатор кодека : 2
Продолжительность : 1 ч. 45 м.
Вид битрейта : Переменный
Битрейт : 4510 Кбит/сек
Максимальный битрейт : 15,0 Мбит/сек
Ширина : 720 пикселей
Высота : 576 пикселей
Соотношение сторон : 4:3
Частота кадров : 25,000 кадров/сек
Стандарт вещания : PAL
Цветовое пространство : YUV
Субдискретизация насыщенности : 4:2:0
Битовая глубина : 8 бит
Тип развёртки : Чересстрочная
Порядок развёртки : Верхнее поле первое
Метод сжатия : С потерями
Бит/(Пиксели*Кадры) : 0.435
Размер потока : 3,31 Гбайт (91%)

Аудио
Идентификатор : 6122 (0x17EA)
Идентификатор меню : 6120 (0x17E8)
Формат : MPEG Audio
Версия формата : Version 1
Профиль формата : Layer 2
Идентификатор кодека : 3
Продолжительность : 1 ч. 45 м.
Вид битрейта : Постоянный
Битрейт : 192 Кбит/сек
Каналы : 2 канала
Частота : 48,0 КГц
Метод сжатия : С потерями
Задержка видео : -19 мс.
Размер потока : 144 Мбайт (4%)
Язык : Ukrainian

Меню
Идентификатор : 6120 (0x17E8)
Идентификатор меню : 6120 (0x17E8)
Продолжительность : 1 ч. 45 м.
Список : 6121 (0x17E9) (MPEG Video) / 6122 (0x17EA) (MPEG Audio, Ukrainian)
Язык : / Ukrainian
Profile PM

batmanburgui


Стаж: 2 года

Сообщений: 1

Откуда: Харьков

Украина

Торрент-статистика

post 10-Ноя-2014 04:00 (спустя 1 час 59 минут)

Quote


Загрузка отложена до 11-Ноя-2014 00:01

Что за бред?
Profile PM

yuigg


Стаж: 2 года 8 месяцев

Сообщений: 26

Барбадос

Торрент-статистика

post 10-Ноя-2014 06:42 (спустя 2 часа 41 минута)

Quote


batmanburgui писал(а):

Загрузка отложена до 11-Ноя-2014 00:01

Что за бред?
Правила (увы).

Первые пару дней после создания аккаунта возможности урезаны.

Как модер другого ресурса, могу предположить, что это правило заведено для противодействия ботам, спамерам и серому SEO.
Profile PM
Ответить на тему