FÚTBOL POR EL MUNDO / Мировой футбол / Canal+ Liga Campeones HD [17.03.2015, 1080i, H.264, SP, HDTV, SAT]

Ответить на тему

Автор Сообщение

K. Valera


Стаж: 4 года 7 месяцев

Сообщений: 778

Украина

Торрент-статистика

post 19-Мар-2015 23:37

Quote


FÚTBOL POR EL MUNDO / Мировой футбол / Canal+ Liga Campeones HD

Год выпуска: 17.03.2015
Вид спорта: Футбол
Релиз: rgfootball.net
Aвтор рипа: K. Valera
Продолжительность: 00:43:45
Комментарий: Профессиональный
Язык комментариев: Испанский
Канал:
Качество: HDTV / Формат: *.ts / Видео Кодек: AVC / Аудио Кодек: AC-3, MPEG
Видео: 1920x1080 (16/9), 25,000 fps, 9.3 Мбит/сек
Аудио 1: 384 Kbps, 48 KHz, Dolby AC3 2.0 channels (испанский)
Аудио 2: 192 Kbps, 48 KHz, Dolby AC3 2.0 channels (испанский)
Аудио 3: 160 Kbps, 48 KHz, MPEG, mp2 1.0 channels (------------)
Запись видео: Openbox SX6 HD
Программа корректировки видео: Cypheros TS-Doctor ver. 1.2.22

Код:

General
ID                             : 1004 (0x3EC)
Complete name                  : E:\FÚTBOL POR EL MUNDO 17.03.2015.ts
Format                         : MPEG-TS
File size                      : 2.83 GiB
Duration                       : 43mn 43s
Overall bit rate mode          : Variable
Overall bit rate               : 9 269 Kbps

Video
ID                             : 160 (0xA0)
Menu ID                        : 30900 (0x78B4)
Format                         : AVC
Format/Info                    : Advanced Video Codec
Format profile                 : High@L4.0
Format settings, CABAC         : Yes
Format settings, ReFrames      : 4 frames
Codec ID                       : 27
Duration                       : 43mn 44s
Bit rate                       : 8 068 Kbps
Width                          : 1 920 pixels
Height                         : 1 080 pixels
Display aspect ratio           : 16:9
Frame rate                     : 25.000 fps
Color space                    : YUV
Chroma subsampling             : 4:2:0
Bit depth                      : 8 bits
Scan type                      : Interlaced
Scan order                     : Top Field First
Bits/(Pixel*Frame)             : 0.156
Stream size                    : 2.46 GiB (87%)
Encryption                     : Nagravision
Color primaries                : BT.709
Transfer characteristics       : BT.709
Matrix coefficients            : BT.709
Color range                    : Limited

Audio #1
ID                             : 80 (0x50)
Menu ID                        : 30900 (0x78B4)
Format                         : AC-3
Format/Info                    : Audio Coding 3
Mode extension                 : CM (complete main)
Format settings, Endianness    : Big
Codec ID                       : 6
Duration                       : 43mn 44s
Bit rate mode                  : Constant
Bit rate                       : 384 Kbps
Channel(s)                     : 2 channels
Channel positions              : Front: L R
Sampling rate                  : 48.0 KHz
Bit depth                      : 16 bits
Compression mode               : Lossy
Delay relative to video        : 145ms
Stream size                    : 120 MiB (4%)
Language                       : Spanish
Language, more info            : Clean effects
Encryption                     : Nagravision

Audio #2
ID                             : 81 (0x51)
Menu ID                        : 30900 (0x78B4)
Format                         : AC-3
Format/Info                    : Audio Coding 3
Mode extension                 : CM (complete main)
Format settings, Endianness    : Big
Codec ID                       : 6
Duration                       : 43mn 44s
Bit rate mode                  : Constant
Bit rate                       : 192 Kbps
Channel(s)                     : 2 channels
Channel positions              : Front: L R
Sampling rate                  : 48.0 KHz
Bit depth                      : 16 bits
Compression mode               : Lossy
Delay relative to video        : 145ms
Stream size                    : 60.1 MiB (2%)
Language                       : qaa
Language, more info            : Clean effects
Encryption                     : Nagravision

Audio #3
ID                             : 82 (0x52)
Menu ID                        : 30900 (0x78B4)
Format                         : MPEG Audio
Format version                 : Version 1
Format profile                 : Layer 2
Codec ID                       : 4
Duration                       : 43mn 45s
Bit rate mode                  : Constant
Bit rate                       : 160 Kbps
Channel(s)                     : 1 channel
Sampling rate                  : 48.0 KHz
Compression mode               : Lossy
Delay relative to video        : 29ms
Stream size                    : 50.1 MiB (2%)
Encryption                     : Nagravision

_________________
webmoney: R102437980674, U865336828210, Bitcoin: 1C5RGE4438bq3VfVUEfcw63rmYrb6Sgr29. Файлы не конвертирую. Готов реанимировать почти все свои раздачи.
Profile PM

hrew


Стаж: 3 года 7 месяцев

Сообщений: 275

Украина

Торрент-статистика

post 20-Мар-2015 00:40 (спустя 1 час 2 минуты)

Quote


СПАСИБО,ПРИЯТНО УДИВЛЯЕШЬ.
Profile PM

K. Valera


Стаж: 4 года 7 месяцев

Сообщений: 778

Украина

Торрент-статистика

post 20-Мар-2015 01:39 (спустя 59 минут)

Quote


Смотрите, пока есть возможность. Лига Аргентины (обзор) вчера по программе должен был идти, но показали обзор Бундеслиги. Пришлось писать этот обзор для разнообразия.

_________________
webmoney: R102437980674, U865336828210, Bitcoin: 1C5RGE4438bq3VfVUEfcw63rmYrb6Sgr29. Файлы не конвертирую. Готов реанимировать почти все свои раздачи.
Profile PM

timahelm


Стаж: 6 лет

Сообщений: 125

Откуда: Ванкувер

Канада

Торрент-статистика

post 25-Мар-2015 05:35 (спустя 5 дней)

Quote


Ребят, ищу передачу European Football Show с канала BT Sport. Ни у кого случаем нет доступа?

http://en.wikipedia.org/wiki/European_Football_Show
Profile PM
Ответить на тему