SPORT+ / Обзор матчей европейских чемпионатов / Canal+ Sport HD [23.03.2015, HD, 1080i, H264, AC3 5.1, PL, HDTV]

Ответить на тему

Автор Сообщение

K. Valera


Стаж: 4 года 7 месяцев

Сообщений: 781

Украина

Торрент-статистика

post 24-Мар-2015 01:35

Quote


SPORT+ / Обзор матчей европейских чемпионатов/ Canal+ Sport HD

Год выпуска: 23.03.2015
Вид спорта: Футбол
Релиз: rgfootball.net
Aвтор рипа: K. Valera
Продолжительность: 01:06:40
Канал:
Комментарий: Профессиональный
Язык комментариев: Польский
Качество: HDTV / Формат: *.ts / Видео Кодек: AVC / Аудио Кодек: AC-3
Видео: 1920x1080 (16/9), 25,000 fps, 10.9 Мбит/сек
Аудио: 384 Kbps, 48 KHz, Dolby AC3 5.1 channels
Запись видео: Openbox SX6 HD
Программа корректировки видео: Cypheros TS-Doctor ver. 1.2.22

Код:

General
ID                             : 400 (0x190)
Complete name                  : D:\111\Sport+ 23.03.2015.ts
Format                         : MPEG-TS
File size                      : 5.08 GiB
Duration                       : 1h 6mn
Overall bit rate mode          : Variable
Overall bit rate               : 10.9 Mbps

Video
ID                             : 361 (0x169)
Menu ID                        : 13022 (0x32DE)
Format                         : AVC
Format/Info                    : Advanced Video Codec
Format profile                 : Main@L4.0
Format settings, CABAC         : Yes
Format settings, ReFrames      : 3 frames
Format settings, GOP           : M=4, N=28
Codec ID                       : 27
Duration                       : 1h 6mn
Bit rate                       : 9 982 Kbps
Width                          : 1 920 pixels
Height                         : 1 080 pixels
Display aspect ratio           : 16:9
Frame rate                     : 25.000 fps
Standard                       : Component
Color space                    : YUV
Chroma subsampling             : 4:2:0
Bit depth                      : 8 bits
Scan type                      : Interlaced
Scan order                     : Top Field First
Bits/(Pixel*Frame)             : 0.193
Stream size                    : 4.65 GiB (91%)
Encryption                     : Encrypted
Color primaries                : BT.601 PAL
Transfer characteristics       : BT.470 System B, BT.470 System G
Matrix coefficients            : BT.601
Color range                    : Limited

Audio
ID                             : 385 (0x181)
Menu ID                        : 13022 (0x32DE)
Format                         : AC-3
Format/Info                    : Audio Coding 3
Mode extension                 : CM (complete main)
Format settings, Endianness    : Big
Codec ID                       : 6
Duration                       : 1h 6mn
Bit rate mode                  : Constant
Bit rate                       : 384 Kbps
Channel(s)                     : 6 channels
Channel positions              : Front: L C R, Side: L R, LFE
Sampling rate                  : 48.0 KHz
Bit depth                      : 16 bits
Compression mode               : Lossy
Delay relative to video        : -996ms
Stream size                    : 183 MiB (4%)
Language                       : Polish
Encryption                     : Encrypted

_________________
webmoney: R102437980674, U865336828210, Bitcoin: 1C5RGE4438bq3VfVUEfcw63rmYrb6Sgr29. Файлы не конвертирую. Готов реанимировать почти все свои раздачи.
Profile PM

dimast2509


Стаж: 5 лет

Сообщений: 84

Откуда: Волгодонск

Россия

Торрент-статистика

post 24-Мар-2015 23:15 (спустя 21 час)

Quote


передача интересная?
Profile PM

K. Valera


Стаж: 4 года 7 месяцев

Сообщений: 781

Украина

Торрент-статистика

post 25-Мар-2015 14:29 (спустя 15 часов)

Quote


Видеообзор основных европейских чемпионатов. Для тех у кого нет времени смотреть все матчи, а есть желание быть в курсе событий, достаточно посмотреть этот обзор. Польский комментатор пусть не пугает, почти всё понятно, хоть я по польски вообще никак.

А для самых ленивых и любознательных довожу, что на этом трекере есть поддержка ACE STREAM, установив эту программку плюс плагин для браузера можно смотреть видео онлайн в HD качестве без скачивания файла целиком. Вот такая штука появится после установки:

_________________
webmoney: R102437980674, U865336828210, Bitcoin: 1C5RGE4438bq3VfVUEfcw63rmYrb6Sgr29. Файлы не конвертирую. Готов реанимировать почти все свои раздачи.
Profile PM
Ответить на тему