Sport NÅ / Обзор спортивных событий за день (фрагмент) / TV 2 Sportskanalen HD [19.04.2015, H.264, 1080i, NOR, HDTV, SAT]

Ответить на тему

Автор Сообщение

K. Valera


Стаж: 4 года 7 месяцев

Сообщений: 781

Украина

Торрент-статистика

post 19-Апр-2015 20:35

Quote


Sport NÅ / Обзор спортивных событий за день / TV 2 Sportskanalen HD

Год выпуска: 19.04.2015
Вид спорта: Футбол (в основном)
Релиз: rgfootball.net
Aвтор рипа: K. Valera
Продолжительность: 00:59:05
Комментарий: Профессиональный
Язык комментариев: Норвежский, (английский)
Канал:
Качество: HDTV / Формат: *.ts / Видео Кодек: AVC / Аудио Кодек: MPEG
Видео: 1920x1080 (16/9), 25,000 fps, 10.5 Мбит/сек
Аудио : 256 Kbps, 48 KHz, MPEG Audio, Joint stereo, CBR (Norwegian)
Запись видео: Openbox SX6 HD
Программа корректировки видео: Cypheros TS-Doctor ver. 1.2.22

Описание: Представлен лишь фрагмент передачи, так сказать на пробу. Эта передача идёт ежедневно почти пол дня. Например сегодня её продолжительность составляла 445 минут. Тема: обзор спортивных событий. В данной раздаче в основном некоторые футбольные матчи Англии, а также Норвегии. Остальные виды спорта.

Код:

General
ID                             : 68 (0x44)
Complete name                  : E:\Sport NÅ 19.04.2015.ts
Format                         : MPEG-TS
File size                      : 4.32 GiB
Duration                       : 59mn 5s
Overall bit rate mode          : Variable
Overall bit rate               : 10.5 Mbps

Video
ID                             : 1277 (0x4FD)
Menu ID                        : 7078 (0x1BA6)
Format                         : AVC
Format/Info                    : Advanced Video Codec
Format profile                 : High@L4.0
Format settings, CABAC         : Yes
Format settings, ReFrames      : 4 frames
Format settings, GOP           : M=6, N=32
Codec ID                       : 27
Duration                       : 59mn 5s
Bit rate                       : 9 686 Kbps
Width                          : 1 280 pixels
Height                         : 720 pixels
Display aspect ratio           : 16:9
Frame rate                     : 50.000 fps
Color space                    : YUV
Chroma subsampling             : 4:2:0
Bit depth                      : 8 bits
Scan type                      : Progressive
Bits/(Pixel*Frame)             : 0.210
Stream size                    : 4.00 GiB (93%)

Audio
ID                             : 3381 (0xD35)
Menu ID                        : 7078 (0x1BA6)
Format                         : MPEG Audio
Format version                 : Version 1
Format profile                 : Layer 2
Mode                           : Joint stereo
Mode extension                 : Intensity Stereo + MS Stereo
Codec ID                       : 3
Duration                       : 59mn 5s
Bit rate mode                  : Constant
Bit rate                       : 256 Kbps
Channel(s)                     : 2 channels
Sampling rate                  : 48.0 KHz
Compression mode               : Lossy
Delay relative to video        : -995ms
Stream size                    : 108 MiB (2%)
Language                       : Norwegian

_________________
webmoney: R102437980674, U865336828210, Bitcoin: 1C5RGE4438bq3VfVUEfcw63rmYrb6Sgr29. Файлы не конвертирую. Готов реанимировать почти все свои раздачи.


Последний раз редактировалось: K. Valera (2015-05-02 11:51), всего редактировалось 1 раз
Profile PM

Lamin80


Стаж: 3 года 9 месяцев

Сообщений: 243

Откуда: Горловка Донецкая Народная Республика

Россия

Торрент-статистика

post 20-Апр-2015 11:48 (спустя 15 часов)

Quote


жестоко...ты хочешь каждый день 6-часовый обзор выкладывать?))) бразилию - основной чемпионат, бушь выкладывать?
Profile PM

K. Valera


Стаж: 4 года 7 месяцев

Сообщений: 781

Украина

Торрент-статистика

post 20-Апр-2015 12:09 (спустя 21 минута)

Quote


Даже не знаю. Как будет получаться по времени, техническим, бытовым и финансовым возможностям.

_________________
webmoney: R102437980674, U865336828210, Bitcoin: 1C5RGE4438bq3VfVUEfcw63rmYrb6Sgr29. Файлы не конвертирую. Готов реанимировать почти все свои раздачи.
Profile PM

Lamin80


Стаж: 3 года 9 месяцев

Сообщений: 243

Откуда: Горловка Донецкая Народная Республика

Россия

Торрент-статистика

post 20-Апр-2015 15:14 (спустя 3 часа)

Quote


тут не только футбольный обзор, хоккей есть....как я понял, это тупо вперемешку обзоры чемпионатов...и каждый день они будут на 80% похожи
Profile PM

K. Valera


Стаж: 4 года 7 месяцев

Сообщений: 781

Украина

Торрент-статистика

post 20-Апр-2015 16:45 (спустя 1 час 31 минута)

Quote


Нет, там сегодня другие матчи показывали. Там у них ещё какие то телемосты, интервью. Жаль определённой программы нет, не угадаешь что и когда писать.

_________________
webmoney: R102437980674, U865336828210, Bitcoin: 1C5RGE4438bq3VfVUEfcw63rmYrb6Sgr29. Файлы не конвертирую. Готов реанимировать почти все свои раздачи.
Profile PM
Ответить на тему