Espacio reservado: David Villa en Nueva York / Canal+ Fútbol HD [30.06.2015, 1080i, H.264, ES, HDTV, SAT]

Ответить на тему

Автор Сообщение

K. Valera


Стаж: 4 года 7 месяцев

Сообщений: 780

Украина

Торрент-статистика

post 06-Июл-2015 14:53

Quote


Espacio reservado: David Villa en Nueva York / Canal+ Fútbol HD

Год выпуска: 30.06.2015
Вид спорта: Футбол
Релиз:
Aвтор рипа: K. Valera
Продолжительность: 00:57:33
Канал:
Комментарий: Профессиональный
Язык комментариев: Испанский
Качество: HDTV / Формат: *.ts / Видео Кодек: AVC / Аудио Кодек: AC-3
Видео: 1920x1080 (16/9), 25,000 fps, 7.1 Мбит/сек
Аудио 1: 192 Kbps, 48 KHz, Dolby AC-3 2.0 channels Испанский
Аудио 2: 192 Kbps, 48 KHz, Dolby AC-3 2.0 channels Испанский
Запись видео: Openbox SX6 HD
Программа корректировки видео: Cypheros TS-Doctor ver. 1.2.22

Sinopsis: De Tuilla a Nueva York pasando por Gijón, Zaragoza, Valencia, Barcelona y Madrid. David Villa toma asiento en Central Park y comparte con Noemí de Miguel los momentos más destacados de su carrera. El máximo anotador de la selección española habla de su especial relación con el gol, de la importancia del Valencia en su proyección, Messi como compañero, el reto del Atco de Madrid o lo que aún tiene por hacer. El fútbol sigue siendo día y noche, compañero de un viaje que ahora tiene parada en el Yankee Stadium.

Код:

General
ID                             : 1056 (0x420)
Complete name                  : E:\Espacio reservado David Villa en Nueva York.ts
Format                         : MPEG-TS
File size                      : 2.87 GiB
Duration                       : 57mn 33s
Overall bit rate mode          : Variable
Overall bit rate               : 7 141 Kbps

Video
ID                             : 161 (0xA1)
Menu ID                        : 29960 (0x7508)
Format                         : AVC
Format/Info                    : Advanced Video Codec
Format profile                 : High@L4.0
Format settings, CABAC         : Yes
Format settings, ReFrames      : 4 frames
Codec ID                       : 27
Duration                       : 57mn 32s
Bit rate                       : 6 400 Kbps
Width                          : 1 920 pixels
Height                         : 1 080 pixels
Display aspect ratio           : 16:9
Frame rate                     : 25.000 fps
Color space                    : YUV
Chroma subsampling             : 4:2:0
Bit depth                      : 8 bits
Scan type                      : MBAFF
Scan order                     : Top Field First
Bits/(Pixel*Frame)             : 0.123
Stream size                    : 2.57 GiB (90%)
Encryption                     : Nagravision
Color primaries                : BT.709
Transfer characteristics       : BT.709
Matrix coefficients            : BT.709
Color range                    : Limited

Audio #1
ID                             : 86 (0x56)
Menu ID                        : 29960 (0x7508)
Format                         : AC-3
Format/Info                    : Audio Coding 3
Mode extension                 : CM (complete main)
Format settings, Endianness    : Big
Codec ID                       : 6
Duration                       : 57mn 33s
Bit rate mode                  : Constant
Bit rate                       : 192 Kbps
Channel(s)                     : 2 channels
Channel positions              : Front: L R
Sampling rate                  : 48.0 KHz
Bit depth                      : 16 bits
Compression mode               : Lossy
Delay relative to video        : -889ms
Stream size                    : 79.0 MiB (3%)
Language                       : Spanish
Encryption                     : Nagravision

Audio #2
ID                             : 87 (0x57)
Menu ID                        : 29960 (0x7508)
Format                         : AC-3
Format/Info                    : Audio Coding 3
Mode extension                 : CM (complete main)
Format settings, Endianness    : Big
Codec ID                       : 6
Duration                       : 57mn 33s
Bit rate mode                  : Constant
Bit rate                       : 192 Kbps
Channel(s)                     : 2 channels
Channel positions              : Front: L R
Sampling rate                  : 48.0 KHz
Bit depth                      : 16 bits
Compression mode               : Lossy
Delay relative to video        : -868ms
Stream size                    : 79.0 MiB (3%)
Language                       : qaa
Language, more info            : Clean effects
Encryption                     : Nagravision

_________________
webmoney: R102437980674, U865336828210, Bitcoin: 1C5RGE4438bq3VfVUEfcw63rmYrb6Sgr29. Файлы не конвертирую. Готов реанимировать почти все свои раздачи.
Profile PM
Ответить на тему