Samenvatting / Обзор футбольных матчей европейских чемпионатов / Ziggo Sport HD [29.02.2016, 1080i, H.264, DUT, MPEG, HDTV, SAT]

Ответить на тему

Автор Сообщение

K. Valera


Стаж: 4 года 7 месяцев

Сообщений: 781

Украина

Торрент-статистика

post 29-Фев-2016 20:29

Quote


Samenvatting / Обзор футбольных матчей европейских чемпионатов / Ziggo Sport HD

Год выпуска: 29.02.2016
Вид спорта: Футбол
Участники: Указаны на скриншотах
Релиз:
Aвтор рипа: K. Valera
Продолжительность: 00:57:07
Канал:
Комментарий: Профессиональный
Язык комментариев: Голландский
Качество: HDTV / Формат: *.ts / Видео Кодек: AVC / Аудио Кодек: MPEG
Видео: 1920x1080 (16/9), 25,000 fps, 6 548 Kbps
Аудио: 192 Kbps, 48 KHz, MPEG mp2 2.0 channels, Dutch
Запись видео: Openbox SX6 HD
Программа корректировки видео: Cypheros TS-Doctor ver. 1.2.22

Код:

General
ID                             : 3222 (0xC96)
Complete name                  : E:\Samenvatting 29.02.2016.ts
Format                         : MPEG-TS
File size                      : 2.83 GiB
Duration                       : 57mn 7s
Overall bit rate mode          : Variable
Overall bit rate               : 7 092 Kbps

Video
ID                             : 522 (0x20A)
Menu ID                        : 20960 (0x51E0)
Format                         : AVC
Format/Info                    : Advanced Video Codec
Format profile                 : High@L4
Format settings, CABAC         : Yes
Format settings, ReFrames      : 3 frames
Codec ID                       : 27
Duration                       : 57mn 6s
Bit rate                       : 6 548 Kbps
Width                          : 1 920 pixels
Height                         : 1 080 pixels
Display aspect ratio           : 16:9
Frame rate                     : 25.000 fps
Standard                       : Component
Color space                    : YUV
Chroma subsampling             : 4:2:0
Bit depth                      : 8 bits
Scan type                      : Interlaced
Scan order                     : Top Field First
Bits/(Pixel*Frame)             : 0.126
Stream size                    : 2.61 GiB (92%)
Encryption                     : TPS-Crypt  or Viaccess
Color range                    : Limited
Color primaries                : BT.709
Transfer characteristics       : BT.709
Matrix coefficients            : BT.709

Audio
ID                             : 100 (0x64)
Menu ID                        : 20960 (0x51E0)
Format                         : MPEG Audio
Format version                 : Version 1
Format profile                 : Layer 2
Codec ID                       : 4
Duration                       : 57mn 7s
Bit rate mode                  : Constant
Bit rate                       : 192 Kbps
Channel(s)                     : 2 channels
Sampling rate                  : 48.0 KHz
Compression mode               : Lossy
Delay relative to video        : -1s 63ms
Stream size                    : 78.4 MiB (3%)
Language                       : Dutch
Encryption                     : TPS-Crypt  or Viaccess
Скриншоты

_________________
webmoney: R102437980674, U865336828210, Bitcoin: 1C5RGE4438bq3VfVUEfcw63rmYrb6Sgr29. Файлы не конвертирую. Готов реанимировать почти все свои раздачи.
Profile PM
Ответить на тему