Чемпионат России 2011-12 / 19-й тур / Обзор тура [2011 г., Футбол Mobile]

Ответить на тему

Автор Сообщение

Formen


Стаж: 5 лет 7 месяцев

Сообщений: 5372

СССР

Торрент-статистика

post 08-Авг-2011 11:25

Quote


Чемпионат России 2011-12 / 19-й тур / Обзор тура

Год выпуска: 2011
Вид спорта: Футбол Mobile
Участники: Команды Премьер Лиги России
Продолжительность: 59 мин

Комментарий: Профессиональный
Язык комментариев: Русский
Канал:

MI
MI
General
Complete name : D:\RG_Footboll\Reliz\Обзор тура. 19-й тур.mp4
Format : MPEG-4
Format profile : Base Media / Version 2
Codec ID : mp42
File size : 191 MiB
Duration : 59mn 26s
Overall bit rate : 448 Kbps
Encoded date : UTC 2011-08-08 07:17:03
Tagged date : UTC 2011-08-08 07:17:28
Writing application : mp4creator 1.6.1d

Video
ID : 1
Format : MPEG-4 Visual
Format profile : Simple@L1
Format settings, BVOP : No
Format settings, QPel : No
Format settings, GMC : No warppoints
Format settings, Matrix : Default (H.263)
Codec ID : 20
Duration : 59mn 26s
Bit rate mode : Variable
Bit rate : 384 Kbps
Maximum bit rate : 1 102 Kbps
Width : 320 pixels
Height : 240 pixels
Display aspect ratio : 4:3
Frame rate mode : Constant
Frame rate : 18.000 fps
Color space : YUV
Chroma subsampling : 4:2:0
Bit depth : 8 bits
Scan type : Progressive
Compression mode : Lossy
Bits/(Pixel*Frame) : 0.278
Stream size : 163 MiB (86%)
Language : English
Encoded date : UTC 2011-08-08 07:17:03
Tagged date : UTC 2011-08-08 07:17:26

Audio
ID : 2
Format : AAC
Format/Info : Advanced Audio Codec
Format profile : LC
Codec ID : 40
Duration : 59mn 26s
Bit rate mode : Variable
Bit rate : 63.1 Kbps
Maximum bit rate : 85.5 Kbps
Channel(s) : 2 channels
Channel positions : Front: L R
Sampling rate : 22.05 KHz
Compression mode : Lossy
Stream size : 26.8 MiB (14%)
Language : English
Encoded date : UTC 2011-08-08 07:17:27
Tagged date : UTC 2011-08-08 07:17:28
Скриншоты


Последний раз редактировалось: Formen (2011-08-09 18:17), всего редактировалось 3 раз(а)
Profile PM

Bern9


Стаж: 5 лет 7 месяцев

Сообщений: 76

Россия

Торрент-статистика

post 08-Авг-2011 19:12 (спустя 7 часов)

Quote


Добавь Скриншоты И всё под спойлер
Profile PM

Formen


Стаж: 5 лет 7 месяцев

Сообщений: 5372

СССР

Торрент-статистика

post 09-Авг-2011 08:47 (спустя 13 часов)

Quote


Добавил скрины
Profile PM

post 10-Авг-2011 03:39 (спустя 18 часов)


Топик был перенесен из форума <b><a class=\"gen\" href=\"viewforum.php?f=30\">Релизы пользователей</a></b> в форум <b><a class=\"gen\" href=\"viewforum.php?f=17\">Обзорные и аналитические передачи</a></b><br /><br /><a class=\"gen\" href=\"profile.php?mode=viewprofile&u=25146\">Bern9</a>
 
Ответить на тему