Футбол от кутюр / Александр Филимонов / НТВ+ [2011, SD, MPEG, RU, WEBrip]

Ответить на тему

Автор Сообщение

wunder_88


Стаж: 5 лет 8 месяцев

Сообщений: 4198

Откуда: Санкт-Петербург

Россия

Торрент-статистика

post 25-Авг-2011 21:09

Quote


Футбол от кутюр. Александр Филимонов

Год выпуска: 2011
Вид спорта: Футбол
Продолжительность: 00:29:36
Участники: С. Комарова, Е. Кузнеченкова, Александр Филимонов
Комментарий: Профессиональный (многоголосый)
Язык комментариев: Русский
Описание:

Программа, в которой ведущие, общаются с известными футболистами, пытаясь рассказать зрителю не только об игре, но и о человеке. Это женский взгляд на звезд нашего футбола.

Герой выпуска: Александр Филимонов



Качество: WEBrip
Формат: MP4
Видео кодек: MPEG
Аудио кодек: AAC
Видео: AVC at 1670 Кбит/сек, 640 x 480 (4:3) at 25.000 fps
Аудио: AAC at 160 Кбит/сек, 2 канала(ов), 48,0 КГц
Формат : MPEG-4
Идентификатор кодека : M4V
Размер файла : 388 Мбайт
Продолжительность : 29 м.
Общий поток : 1833 Кбит/сек
Дата кодирования : UTC 2011-08-24 16:48:14
Дата пометки : UTC 2011-08-24 16:48:14

Видео
Идентификатор : 1
Формат : AVC
Формат/Информация : Advanced Video Codec
Профиль формата : Main@L3.1
Параметр CABAC формата : Нет
Параметр ReFrames формата : 2 кадра
Идентификатор кодека : avc1
Идентификатор кодека/Информация : Advanced Video Coding
Продолжительность : 29 м.
Вид битрейта : Переменный
Битрейт : 1670 Кбит/сек
Максимальный битрейт : 2505 Кбит/сек
Ширина : 640 пикс.
Высота : 480 пикс.
Соотношение сторон : 4:3
Режим частоты кадров : Постоянный
Частота кадров : 25,000 кадр/сек
Цветовое пространство : YUV
Подвыборка цветности : 4:2:0
Битовая глубина : 8 бит
Тип развёртки : Прогрессивная
Бит/(Пиксели*Кадры) : 0.217
Размер потока : 354 Мбайт (91%)
Дата кодирования : UTC 2011-08-24 16:48:14
Дата пометки : UTC 2011-08-24 16:48:14
Material_Duration : 1776400
Material_StreamSize : 370852305
Material_FrameCount : 44410

Аудио
Идентификатор : 2
Формат : AAC
Формат/Информация : Advanced Audio Codec
Профиль формата : LC
Идентификатор кодека : 40
Продолжительность : 29 м.
Вид битрейта : Постоянный
Битрейт : 160 Кбит/сек
Каналы : 2 канала
Расположение каналов : Front: L R
Частота : 48,0 КГц
Метод сжатия : С потерями
Размер потока : 33,3 Мбайт (9%)
Дата кодирования : UTC 2011-08-24 16:48:15
Дата пометки : UTC 2011-08-24 16:48:15
Material_Duration : 1776299
Material_StreamSize : 34949928

_________________


Последний раз редактировалось: wunder_88 (2011-08-25 21:39), всего редактировалось 3 раз(а)
Profile PM

VicJohnson


Стаж: 6 лет

Сообщений: 170

Россия

Торрент-статистика

post 25-Авг-2011 21:31 (спустя 22 минуты)

Quote


wunder_88

Филлимонов > Филимонов

_________________
Profile PM

wunder_88


Стаж: 5 лет 8 месяцев

Сообщений: 4198

Откуда: Санкт-Петербург

Россия

Торрент-статистика

post 25-Авг-2011 21:50 (спустя 18 минут)

Quote


VicJohnson
ay

Кто скачал, отпишитесь пожалуйста о возможности просмотра видео на железном плеере( у меня медиаплеер, кушает все подряд)

_________________
Profile PM

penochet


Стаж: 4 года 1 месяц

Сообщений: 24

Откуда: Москва

Россия

Торрент-статистика

post 04-Ноя-2012 23:52 (спустя 1 год 2 месяца)

Quote


Вернитесь на раздачу
Profile PM
Ответить на тему