Телепрограмма "Свисток" / НТВ+ [05.04.2011, SD, H264, RU, TVRip]

Ответить на тему

Автор Сообщение

Barca84


Стаж: 6 лет

Сообщений: 457

СССР

Торрент-статистика

post 05-Апр-2011 19:59

Quote


 Телепрограмма "Свисток" / НТВ+ [05.04.2011, SD, H264, RU, TVRip]

Год выпуска: 2011
Вид спорта: Футбол
Участники: Батурин, Егоров и Будогосский
Комментарий: Профессиональный (двухголосый)
Язык комментариев: Русский
Доп. информация: Рип собственный
Описание: Передача, посвященная судейству в футболе. Обсуждение нарушений и спорных моментов в играх очередных туров чемпионатов России, Украины и европейских чемпионатов.

Качество: TVRip
Формат: MKV
Видео кодек: H.26x
Аудио кодек: MP3
Видео: 720x576 (5/4), 25 fps, H264, 1500 kbps
Аудио: 44.1 kHz, MPEG Layer 3, 128.00 kbps
Format : Matroska
File size : 550 MiB
Duration : 47mn 12s
Overall bit rate : 1 629 Kbps
Encoded date : UTC 2011-04-05 15:57:10
Writing application : mkvmerge v4.0.0 ('The Stars were mine') сборка от Jun 6 2010 16:18:42
Writing library : libebml v1.0.0 + libmatroska v1.0.0
Video #1
ID : 1
Format : AVC
Format/Info : Advanced Video Codec
Format profile : Main@L5.1
Format settings, CABAC : Yes
Format settings, ReFrames : 1 frame
Muxing mode : Container profile=Unknown@5.1
Codec ID : V_MPEG4/ISO/AVC
Duration : 47mn 12s
Bit rate : 1 469 Kbps
Width : 720 pixels
Height : 576 pixels
Display aspect ratio : 5:4
Frame rate : 25.000 fps
Standard : PAL
Resolution : 8 bits
Colorimetry : 4:2:0
Scan type : Progressive
Bits/(Pixel*Frame) : 0.142
Stream size : 496 MiB (90%)
Audio #2
ID : 2
Format : MPEG Audio
Format version : Version 1
Format profile : Layer 3
Codec ID : A_MPEG/L3
Codec ID/Hint : MP3
Duration : 47mn 12s
Bit rate mode : Constant
Bit rate : 128 Kbps
Channel(s) : 2 channels
Sampling rate : 44.1 KHz
Stream size : 43.2 MiB (8%)
Profile PM

Barca84


Стаж: 6 лет

Сообщений: 457

СССР

Торрент-статистика

post 05-Апр-2011 20:43 (спустя 43 минуты)

Quote


Народ кто скачает напишете отзывы нормальное качество видео или ужас)
Profile PM

robcar


Стаж: 6 лет

Сообщений: 505

Откуда: Рыбинск, 76

Бразилия

Торрент-статистика

post 05-Апр-2011 20:49 (спустя 6 минут)

Quote


QWQ84 писал(а):

нормальное качество видео или ужас)
ближе ко второму. Надо подтянуть мат. часть в области Crop'a и Resize'a =)
Для матроски, учитывая статичность картинки, битрейт 1500 - многовато, можно было обойтись 1000.
Чем кодишь кстати?

_________________
Американский форум: Ты задаешь вопрос, и тебе на него отвечают.
Еврейский форум: Ты задаешь вопрос, и тебе отвечают вопросом.
Русский форум: Ты задаешь вопрос, и тебе долго и со вкусом обьясняют, какой же ты мудак.
Profile PM

Barca84


Стаж: 6 лет

Сообщений: 457

СССР

Торрент-статистика

post 05-Апр-2011 20:52 (спустя 3 минуты)

Quote


robcar писал(а):

QWQ84 писал(а):

нормальное качество видео или ужас)
ближе ко второму. Надо подтянуть мат. часть в области Crop'a и Resize'a =)
Для матроски, учитывая статичность картинки, битрейт 1500 - многовато, можно было обойтись 1000.
Чем кодишь кстати?
Пишу в идиотском формате dvr
AVS Video Converter Единственный которым получается пережать
Я пробовал 1200 картинка мутная была. 1500 вроде норм


Последний раз редактировалось: Barca84 (2011-04-05 20:56), всего редактировалось 2 раз(а)
Profile PM

post 05-Апр-2011 20:53 (спустя 55 секунд)


Топик был перенесен из форума <b><a class=\"gen\" href=\"viewforum.php?f=30\">Релизы пользователей</a></b> в форум <b><a class=\"gen\" href=\"viewforum.php?f=17\">Обзорные и аналитические передачи</a></b><br /><br /><a class=\"gen\" href=\"profile.php?mode=viewprofile&u=1124\">robcar</a>
 

robcar


Стаж: 6 лет

Сообщений: 505

Откуда: Рыбинск, 76

Бразилия

Торрент-статистика

post 05-Апр-2011 20:56 (спустя 3 минуты)

Quote


Нужно было обрезать черные полоски сверху и снизу, а также изменить размер видео, до стандарта 16:9 в данном cлучае (сделать размер 704х400, например).
В указанной тобой проге не работал, поэтому куда именно нажимать подсказать не смогу.

_________________
Американский форум: Ты задаешь вопрос, и тебе на него отвечают.
Еврейский форум: Ты задаешь вопрос, и тебе отвечают вопросом.
Русский форум: Ты задаешь вопрос, и тебе долго и со вкусом обьясняют, какой же ты мудак.
Profile PM

Barca84


Стаж: 6 лет

Сообщений: 457

СССР

Торрент-статистика

post 05-Апр-2011 20:57 (спустя 52 секунды)

Quote


robcar писал(а):

Нужно было обрезать черные полоски сверху и снизу, а также изменить размер видео, до стандарта 16:9 в данном cлучае (сделать размер 704х400, например).
В указанной тобой проге не работал, поэтому куда именно нажимать подсказать не смогу.
Ок учту.
Я только учусь рипы делать)
Еще не все получается
Profile PM

spika-ol


Стаж: 6 лет

Сообщений: 2087

Остров Буве

Торрент-статистика

post 05-Апр-2011 21:10 (спустя 12 минут)

Quote


двр - это обычный исxодник..можно перевести в в тс или мпег, а дальше кодить любой прогой )
Profile PM

Barca84


Стаж: 6 лет

Сообщений: 457

СССР

Торрент-статистика

post 05-Апр-2011 22:08 (спустя 58 минут)

Quote


spika-ol писал(а):

двр - это обычный исxодник..можно перевести в в тс или мпег, а дальше кодить любой прогой )
Какой прогой лучше кодировать мпег в mkv?
Profile PM
Ответить на тему