Digi Sport Show / Спортивный минижурнал / Digi Sport 1 HD [18.05.2015, 1080i, H.264, MPEG, RO, HDTV, SAT]

Ответить на тему

Автор Сообщение

K. Valera


Стаж: 5 лет 7 месяцев

Сообщений: 873

Украина

Торрент-статистика

post 18-Май-2015 13:56

Quote


Digi Sport Show / Спортивный минижурнал / Digi Sport 1 HD

Год выпуска: 18.05.2015
Вид спорта: Футбол
Релиз:
Aвтор рипа: K. Valera
Продолжительность: 00:13:13
Содержание: Подборка спортивных курьёзов, приколов
Комментарий: Профессиональный
Язык комментариев: Румынский (по паспорту, реально интершум)
Канал:
Качество: HDTV / Формат: *.ts / Видео Кодек: AVC / Аудио Кодек: MPEG
Видео: 1920x1080 (16/9), 25,000 fps, 9.8 Мбит/сек
Аудио 1: 128 Kbps, 48 KHz, MPEG mp2 2.0 channels (Румынский)
Запись видео: Openbox SX6 HD
Программа корректировки видео: Cypheros TS-Doctor ver. 1.2.22

Код:

General
ID                             : 13 (0xD)
Complete name                  : E:\Digisport Show 18.05.2015.ts
Format                         : MPEG-TS
File size                      : 934 MiB
Duration                       : 13mn 12s
Overall bit rate mode          : Variable
Overall bit rate               : 9 884 Kbps

Video
ID                             : 602 (0x25A)
Menu ID                        : 4070 (0xFE6)
Format                         : AVC
Format/Info                    : Advanced Video Codec
Format version                 : Version 2
Format profile                 : Main@L4.0
Format settings, CABAC         : Yes
Format settings, ReFrames      : 4 frames
Format settings, GOP           : M=3, N=12
Codec ID                       : 27
Duration                       : 13mn 12s
Bit rate                       : 9 266 Kbps
Maximum bit rate               : 44.0 Kbps
Width                          : 1 920 pixels
Height                         : 1 080 pixels
Display aspect ratio           : 16:9
Frame rate                     : 25.000 fps
Color space                    : YUV
Chroma subsampling             : 4:2:0
Bit depth                      : 8 bits
Scan type                      : Interlaced
Scan order                     : Top Field First
Bits/(Pixel*Frame)             : 0.179
Stream size                    : 875 MiB (94%)
Color primaries                : BT.709
Transfer characteristics       : BT.709
Matrix coefficients            : BT.709
Color range                    : Limited

Audio
ID                             : 603 (0x25B)
Menu ID                        : 4070 (0xFE6)
Format                         : MPEG Audio
Format version                 : Version 1
Format profile                 : Layer 2
Codec ID                       : 4
Duration                       : 13mn 12s
Bit rate mode                  : Constant
Bit rate                       : 128 Kbps
Maximum bit rate               : 132 Kbps
Channel(s)                     : 2 channels
Sampling rate                  : 48.0 KHz
Compression mode               : Lossy
Delay relative to video        : -309ms
Stream size                    : 12.1 MiB (1%)
Language                       : English

Menu
ID                             : 601 (0x259)
Menu ID                        : 4070 (0xFE6)
Duration                       : 13mn 12s
List                           : 602 (0x25A) (AVC) / 603 (0x25B) (MPEG Audio, English)
Language                       :  / English
Maximum bit rate               : 12162800

_________________
Bitcoin: 1C5RGE4438bq3VfVUEfcw63rmYrb6Sgr29
Profile PM
Ответить на тему