Чемпионат Голландии 2015-16 / Highlights Eredivisie / Обзор матчей 23-го тура / FOX Sports 1 HD [15.02.2016, HD, 1080i, H264, DUT, SAT]

Ответить на тему

Автор Сообщение

K. Valera


Стаж: 8 лет 11 месяцев

Сообщений: 883

Украина

Торрент-статистика

post 15-Фев-2016 11:46

Quote


Чемпионат Голландии 2015-16 / Highlights Eredivisie / Обзор матчей 23-го тура / FOX Sports 1 HD

Год выпуска: 15.02.2016
Вид : Футбол
Релиз:
Aвтор рипа: K. Valera
Продолжительность: 00:57:49
Канал:
Комментарий: Профессиональный
Язык комментариев: Нидерландский
Ведущая: Hélène Hendriks
Качество: HDTV / Формат: *.ts / Видео Кодек: AVC / Аудио Кодек: MPEG
Видео: 1920x1080 (16/9), 25,000 fps, 6 132 Kbps
Аудио 1: 192 Kbps, 48 KHz, MPEG mp2 2.0 channels (Dutch)
Запись видео: Openbox SX6 HD
Программа корректировки видео: Cypheros TS-Doctor ver. 1.2.22

Код:

General
ID                             : 3202 (0xC82)
Complete name                  : E:\Eredivisie Highlights 23 round 15.02.2016.ts
Format                         : MPEG-TS
File size                      : 2.69 GiB
Duration                       : 57mn 49s
Overall bit rate mode          : Variable
Overall bit rate               : 6 654 Kbps

Video
ID                             : 528 (0x210)
Menu ID                        : 6092 (0x17CC)
Format                         : AVC
Format/Info                    : Advanced Video Codec
Format profile                 : High@L4
Format settings, CABAC         : Yes
Format settings, ReFrames      : 3 frames
Codec ID                       : 27
Duration                       : 57mn 48s
Bit rate                       : 6 132 Kbps
Width                          : 1 920 pixels
Height                         : 1 080 pixels
Display aspect ratio           : 16:9
Frame rate                     : 25.000 fps
Standard                       : Component
Color space                    : YUV
Chroma subsampling             : 4:2:0
Bit depth                      : 8 bits
Scan type                      : Interlaced
Scan order                     : Top Field First
Bits/(Pixel*Frame)             : 0.118
Stream size                    : 2.48 GiB (92%)
Encryption                     : TPS-Crypt  or Viaccess
Color range                    : Limited
Color primaries                : BT.709
Transfer characteristics       : BT.709
Matrix coefficients            : BT.709

Audio
ID                             : 224 (0xE0)
Menu ID                        : 6092 (0x17CC)
Format                         : MPEG Audio
Format version                 : Version 1
Format profile                 : Layer 2
Codec ID                       : 4
Duration                       : 57mn 48s
Bit rate mode                  : Constant
Bit rate                       : 192 Kbps
Channel(s)                     : 2 channels
Sampling rate                  : 48.0 KHz
Compression mode               : Lossy
Delay relative to video        : 42ms
Stream size                    : 79.4 MiB (3%)
Language                       : Dutch
Encryption                     : TPS-Crypt  or Viaccess
Скриншоты:


_________________
Bitcoin: 1C5RGE4438bq3VfVUEfcw63rmYrb6Sgr29


Последний раз редактировалось: K. Valera (2016-02-23 19:27), всего редактировалось 1 раз
Profile PM

Evgendo


Стаж: 8 лет 8 месяцев

Сообщений: 99

Бразилия

Торрент-статистика

post 15-Фев-2016 19:54 (спустя 8 часов)

Quote


посоветуйте быстрый конвертер видео
Profile PM

K. Valera


Стаж: 8 лет 11 месяцев

Сообщений: 883

Украина

Торрент-статистика

post 15-Фев-2016 20:27 (спустя 32 минуты)

Quote


Я очень редко конвертирую, но у меня такой завалялся. "iWisoft Free Video Converter". Не знаю на счёт скорости, так как комп не молодой.

_________________
Bitcoin: 1C5RGE4438bq3VfVUEfcw63rmYrb6Sgr29
Profile PM

Evgendo


Стаж: 8 лет 8 месяцев

Сообщений: 99

Бразилия

Торрент-статистика

post 15-Фев-2016 21:22 (спустя 54 минуты)

Quote


Спасибо, попробую его использовать, а то мовави 15 версии по моему очень медленно конвертирует.
Profile PM

M-Cooper


Стаж: 6 лет

Сообщений: 288

Откуда: Гомель

Белоруссия

Торрент-статистика

post 29-Фев-2016 14:18 (спустя 13 дней)

Quote


Evgendo писал(а):

посоветуйте быстрый конвертер видео
Вроде Тотал видео конвертер самый стандартный и нормальный, простой в использовании, всех времён и народов. Уже хр..н знает сколько он у меня.
Profile PM
Ответить на тему