Чемпионат Голландии 2015-16 / Eredevisie 2016 Jornada 23 / Обзор голов 23-го тура / Canal+ Fútbol HD [18.02.2016, 1080i, H.264, HDTV, SAT]

Ответить на тему

Автор Сообщение

K. Valera


Стаж: 8 лет 11 месяцев

Сообщений: 883

Украина

Торрент-статистика

post 20-Фев-2016 13:53

Quote


Чемпионат Голландии 2015-16 / Eredevisie 2016 Jornada 23 / Обзор голов 23-го тура / Canal+ Fútbol HD

Год выпуска: 18.02.2016
Вид : Футбол
Релиз:
Aвтор рипа: K. Valera
Продолжительность: 00:10:21
Канал:
Комментарий: нет
Язык комментариев: Музыкальное сопровождение
Качество: HDTV / Формат: *.ts / Видео Кодек: AVC / Аудио Кодек: MPEG, AC-3
Видео: 1920x1080 (16/9), 25,000 fps, 7 674 Kbps
Аудио 1: 192 Kbps, 48 KHz, Dolby AC-3 2.0 channels
Аудио 2: 192 Kbps, 48 KHz, Dolby AC-3 2.0 channels
Запись видео: Openbox SX6 HD
Программа корректировки видео: Cypheros TS-Doctor ver. 1.2.22

Код:

General
ID                             : 1056 (0x420)
Complete name                  : E:\Eredevisie 2016 Jornada 23.ts
Format                         : MPEG-TS
File size                      : 658 MiB
Duration                       : 10mn 50s
Overall bit rate mode          : Variable
Overall bit rate               : 8 481 Kbps

Video
ID                             : 161 (0xA1)
Menu ID                        : 29951 (0x74FF)
Format                         : AVC
Format/Info                    : Advanced Video Codec
Format profile                 : High@L4
Format settings, CABAC         : Yes
Format settings, ReFrames      : 4 frames
Codec ID                       : 27
Duration                       : 10mn 49s
Bit rate                       : 7 674 Kbps
Width                          : 1 920 pixels
Height                         : 1 080 pixels
Display aspect ratio           : 16:9
Frame rate                     : 25.000 fps
Color space                    : YUV
Chroma subsampling             : 4:2:0
Bit depth                      : 8 bits
Scan type                      : MBAFF
Scan order                     : Top Field First
Bits/(Pixel*Frame)             : 0.148
Stream size                    : 594 MiB (90%)
Encryption                     : Nagravision
Color range                    : Limited
Color primaries                : BT.709
Transfer characteristics       : BT.709
Matrix coefficients            : BT.709

Audio #1
ID                             : 86 (0x56)
Menu ID                        : 29951 (0x74FF)
Format                         : AC-3
Format/Info                    : Audio Coding 3
Mode extension                 : CM (complete main)
Format settings, Endianness    : Big
Codec ID                       : 6
Duration                       : 10mn 50s
Bit rate mode                  : Constant
Bit rate                       : 192 Kbps
Channel(s)                     : 2 channels
Channel positions              : Front: L R
Sampling rate                  : 48.0 KHz
Compression mode               : Lossy
Delay relative to video        : 32ms
Stream size                    : 14.9 MiB (2%)
Language                       : Spanish
Encryption                     : Nagravision

Audio #2
ID                             : 87 (0x57)
Menu ID                        : 29951 (0x74FF)
Format                         : AC-3
Format/Info                    : Audio Coding 3
Mode extension                 : CM (complete main)
Format settings, Endianness    : Big
Codec ID                       : 6
Duration                       : 10mn 50s
Bit rate mode                  : Constant
Bit rate                       : 192 Kbps
Channel(s)                     : 2 channels
Channel positions              : Front: L R
Sampling rate                  : 48.0 KHz
Compression mode               : Lossy
Delay relative to video        : 20ms
Stream size                    : 14.9 MiB (2%)
Language                       : qaa
Language, more info            : Clean effects
Encryption                     : Nagravision
Скриншоты


_________________
Bitcoin: 1C5RGE4438bq3VfVUEfcw63rmYrb6Sgr29


Последний раз редактировалось: K. Valera (2016-02-23 18:47), всего редактировалось 1 раз
Profile PM

cristianmotta


Стаж: 10 лет

Сообщений: 242

Торрент-статистика

post 20-Фев-2016 15:14 (спустя 1 час 20 минут)

Quote


jupiler league olanda yesterday?
Profile PM

K. Valera


Стаж: 8 лет 11 месяцев

Сообщений: 883

Украина

Торрент-статистика

post 20-Фев-2016 16:39 (спустя 1 час 25 минут)

Quote


Если обзор, то возможно в понедельник (Forse il Lunedi)

_________________
Bitcoin: 1C5RGE4438bq3VfVUEfcw63rmYrb6Sgr29
Profile PM

cristianmotta


Стаж: 10 лет

Сообщений: 242

Торрент-статистика

post 20-Фев-2016 16:49 (спустя 9 минут)

Quote


tanks
Profile PM
Ответить на тему