Чемпионат Голландии 2015-16 / Eredivisie Highlights & Jupiler League Highlights / Обзор матчей 28-го и 32 туров / FOX Sports 1 HD [22.03.2016, HD, 1080i, H264, DUT, SAT]

Ответить на тему

Автор Сообщение

K. Valera


Стаж: 8 лет 11 месяцев

Сообщений: 883

Украина

Торрент-статистика

post 22-Мар-2016 18:05

Quote


Чемпионат Голландии 2015-16 / Eredivisie Highlights & Jupiler League Highlights / Обзор матчей 28-го и 32 туров / FOX Sports 1 HD

Год выпуска: 22.03.2016
Вид : Футбол
Релиз:
Aвтор рипа: K. Valera
Продолжительность: 01:59:06
Канал:
Комментарий: Профессиональный
Язык комментариев: Нидерландский
Ведущий: Milan Van Dongen
Качество: HDTV / Формат: *.ts / Видео Кодек: AVC / Аудио Кодек: MPEG
Видео: 1920x1080 (16/9), 25,000 fps, 6 013 Kbps
Аудио: 192 Kbps, 48 KHz, MPEG mp2 2.0 channels (Dutch)
Запись видео: Openbox SX6 HD
Программа корректировки видео: Cypheros TS-Doctor ver. 1.2.22

Код:

General
ID                             : 3202 (0xC82)
Complete name                  : D:\111\Eredivisie Highlights 28 round & Jupiler League Highlights 32 round.ts
Format                         : MPEG-TS
File size                      : 5.43 GiB
Duration                       : 1h 59mn
Overall bit rate mode          : Variable
Overall bit rate               : 6 529 Kbps

Video
ID                             : 528 (0x210)
Menu ID                        : 6092 (0x17CC)
Format                         : AVC
Format/Info                    : Advanced Video Codec
Format profile                 : High@L4
Format settings, CABAC         : Yes
Format settings, ReFrames      : 3 frames
Codec ID                       : 27
Duration                       : 1h 59mn
Bit rate                       : 6 013 Kbps
Width                          : 1 920 pixels
Height                         : 1 080 pixels
Display aspect ratio           : 16:9
Frame rate                     : 25.000 fps
Standard                       : Component
Color space                    : YUV
Chroma subsampling             : 4:2:0
Bit depth                      : 8 bits
Scan type                      : Interlaced
Scan order                     : Top Field First
Bits/(Pixel*Frame)             : 0.116
Stream size                    : 5.00 GiB (92%)
Encryption                     : TPS-Crypt  or Viaccess
Color range                    : Limited
Color primaries                : BT.709
Transfer characteristics       : BT.709
Matrix coefficients            : BT.709

Audio
ID                             : 224 (0xE0)
Menu ID                        : 6092 (0x17CC)
Format                         : MPEG Audio
Format version                 : Version 1
Format profile                 : Layer 2
Codec ID                       : 4
Duration                       : 1h 59mn
Bit rate mode                  : Constant
Bit rate                       : 192 Kbps
Channel(s)                     : 2 channels
Sampling rate                  : 48.0 KHz
Compression mode               : Lossy
Delay relative to video        : -522ms
Stream size                    : 164 MiB (3%)
Language                       : Dutch
Encryption                     : TPS-Crypt  or Viaccess
Скриншоты:


_________________
Bitcoin: 1C5RGE4438bq3VfVUEfcw63rmYrb6Sgr29
Profile PM
Ответить на тему