Чемпионат России 2011-12 / 20-й тур / По горячим следам / Первый выпуск / НТВ+ [14.08.2011, SD, XviD, RU, IPTV]

Ответить на тему

Автор Сообщение

wunder_88


Стаж: 5 лет 8 месяцев

Сообщений: 4198

Откуда: Санкт-Петербург

Россия

Торрент-статистика

post 14-Авг-2011 01:05

Quote


Чемпионат России 2011-12 / 20-й тур / По горячим следам
Год выпуска: 2011
Вид спорта: Футбол

Продолжительность: 00:36:58

Комментарий:Профессиональный
Язык комментариев:Русский

Качество: IPTV
Формат:AVI
Видео кодек: XviD
Аудио кодек: MP3
Видео: 704x528 (1.33:1), 25 fps, XviD MPEG-4 ~1699 kbps avg, 0.18 bit/pixel
Аудио: 48 kHz, MPEG Layer 3, 2 ch, ~128.00 kbps avg

_________________


Последний раз редактировалось: wunder_88 (2011-08-14 01:16), всего редактировалось 1 раз
Profile PM

wunder_88


Стаж: 5 лет 8 месяцев

Сообщений: 4198

Откуда: Санкт-Петербург

Россия

Торрент-статистика

post 14-Авг-2011 01:08 (спустя 2 минуты)

Quote


есть небольшой рассинхрон, во второй половине программы.

_________________
Profile PM

musyaaa


Стаж: 6 лет

Сообщений: 42

Откуда: Одесса

Украина

Торрент-статистика

post 14-Авг-2011 01:16 (спустя 8 минут)

Quote


Спасибо
Profile PM

arkopov


Стаж: 6 лет

Сообщений: 14

Аландские острова

Торрент-статистика

post 14-Авг-2011 02:13 (спустя 56 минут)

Quote


wunder_88
Ну ты чего, издеваешься что ли? Ну спроси наконец у админов-модеров, у тех, кто нормальные рипы лепит, как галочки снимать в кодере. Повторяю ещё раз - http://rgfootball.net/viewtopic.php?p=90187#90187 :
На железном плеере вообще не идёт. Вот так больше никогда не делай :

Цитата:

Параметр QPel формата : Да
Параметр GMC формата : 3 точки перехода
Снимай галки с QPel и GMC, железки их не переваривают.
Я уж не говорю про кривой аспект. 16:9 должно быть здесь.
Profile PM

wunder_88


Стаж: 5 лет 8 месяцев

Сообщений: 4198

Откуда: Санкт-Петербург

Россия

Торрент-статистика

post 14-Авг-2011 02:53 (спустя 40 минут)

Quote


Цитата:

Ну ты чего, издеваешься что ли?
нет

Цитата:

Снимай галки с QPel и GMC, железки их не переваривают.
сейчас проверил и спокойно посмотрел по теликe, мой плеер нормально все съел

Цитата:

Я уж не говорю про кривой аспект. 16:9 должно быть здесь.
напиши нтв+ и скажи им это, почему они вместо аспекта 16:9 дают картинку 4:3
Общее
Идентификатор : 11940 (0x2EA4)
Полное имя : C:\Запись\Наш футбол-20110813-224400.ts
Формат : MPEG-TS
Размер файла : 1,47 Гбайт
Продолжительность : 1 ч. 2 м.
Общий поток : 3370 Кбит/сек

Видео
Идентификатор : 68 (0x44)
Идентификатор меню : 1 (0x1)
Формат : MPEG Video
Версия формата : Version 2
Профиль формата : Main@Main
Параметр BVOP формата : Да
Параметр матрицы формата : Выборочная
Идентификатор кодека : 2
Продолжительность : 1 ч. 2 м.
Вид битрейта : Переменный
Битрейт : 3009 Кбит/сек
Максимальный битрейт : 15,0 Мбит/сек
Ширина : 704 пикс.
Высота : 576 пикс.
Соотношение сторон : 4:3
Частота кадров : 25,000 кадр/сек
Стандарт вещания : PAL
Цветовое пространство : YUV
Подвыборка цветности : 4:2:0
Битовая глубина : 8 бит
Метод сжатия : С потерями
Бит/(Пиксели*Кадры) : 0.297
Размер потока : 1,31 Гбайт (89%)

Аудио
Идентификатор : 69 (0x45)
Идентификатор меню : 1 (0x1)
Формат : MPEG Audio
Версия формата : Version 1
Профиль формата : Layer 2
Идентификатор кодека : 3
Продолжительность : 1 ч. 2 м.
Вид битрейта : Постоянный
Битрейт : 192 Кбит/сек
Каналы : 2 канала
Частота : 48,0 КГц
Метод сжатия : С потерями
Задержка видео : -317 мс.
Размер потока : 85,9 Мбайт (6%)
Язык : Russian

_________________
Profile PM

messi832607


Стаж: 6 лет

Сообщений: 13

Откуда: RU

Россия

Торрент-статистика

post 14-Авг-2011 06:05 (спустя 3 часа)

Quote


Реально, к сожалению на железном не идет. С arkopov согласен
Profile PM
Ответить на тему