Laver Cup 2017 / Day 3 / Match 10 / Александр Зверев - Сэм Куэрри / Alexander Zverev - Sam Querrey / ESPN [24.09.2017, HD, 720p, 50 fps, ENG, IPTV]

Ответить на тему

Автор Сообщение

oleg_1954


Стаж: 10 лет

Сообщений: 9827

Откуда: Волгоград

Россия

Торрент-статистика

post 25-Сен-2017 19:20

Quote


Alexander Zverev - Sam Querrey. Laver Cup 2017. Day 3. Match 10
Александр Зверев - Сэм Куэрри. Кубок Лэйвера 2017. 3-й День. Матч 10

Год выпуска: 24.09.2017
Вид спорта: Теннис
Участники: Александр Зверев - Сэм Куэрри. Кубок Лэйвера 2017. 3-й День. Матч 10
Комментарий: Профессиональный Английский
Качество: IPTVRip Формат: MKV
Видео кодек: H.264 Аудио кодек: MP2
Видео: MPEG4 Video H.264 1280x720 50 fps Bit rate 5756 Kbps Aspect Ratio 16:9
Аудио: Английский MP2 48000 Hz stereo 256 Kbps
Спасибо leomessi00 за предоставленный исходный файл
00:59:37
General
Format : Matroska
Format version : Version 4 / Version 2
File size : 2.55 GiB
Duration : 59mn 37s
Overall bit rate : 6 134 Kbps
Movie name : A.Zverev - S.Querrey.Laver Cup 2017. Day 3. Match 10
Encoded date : UTC 2010-02-22 21:41:31
Writing application : mkvmerge v5.9.0 ('On The Loose') built on Dec 9 2012 15:37:01
Writing library : libebml v1.3.0 + libmatroska v1.4.0

Video
ID : 1
Format : AVC
Format/Info : Advanced Video Codec
Format profile : High@L4.0
Format settings, CABAC : Yes
Format settings, ReFrames : 4 frames
Codec ID : V_MPEG4/ISO/AVC
Duration : 59mn 37s
Bit rate : 5 756 Kbps
Width : 1 280 pixels
Height : 720 pixels
Display aspect ratio : 16:9
Frame rate mode : Constant
Frame rate : 50.000 fps
Color space : YUV
Chroma subsampling : 4:2:0
Bit depth : 8 bits
Scan type : Progressive
Bits/(Pixel*Frame) : 0.125
Stream size : 2.40 GiB (94%)
Language : English
Default : Yes
Forced : No
Color primaries : BT.709
Transfer characteristics : BT.709
Matrix coefficients : BT.709

Audio
ID : 2
Format : MPEG Audio
Format version : Version 1
Format profile : Layer 2
Codec ID : A_MPEG/L2
Codec ID/Hint : MP2
Duration : 59mn 37s
Bit rate mode : Constant
Bit rate : 256 Kbps
Channel count : 2 channels
Sampling rate : 48.0 KHz
Compression mode : Lossy
Delay relative to video : -78ms
Stream size : 109 MiB (4%)
Language : English
Default : Yes
Forced : No

_________________
Donate: Yandexmoney 410011809224246
Сбербанк 4274 3200 2947 3116
Profile PM
Ответить на тему