Abu Dhabi 2018 / 1/2 финала / Новак Джокович - Карен Хачанов / Novak Djokovic - Karen Khachanov / Sport TV [28.12.2018, HD, 1080i, 25 fps, POR, IPTV]

Ответить на тему

Автор Сообщение

oleg_1954


Стаж: 10 лет

Сообщений: 9827

Откуда: Волгоград

Россия

Торрент-статистика

post 29-Дек-2018 12:05

Quote


Novak Djokovic - Karen Khachanov. Abu Dhabi 2018. Semifinal
Новак Джокович - Карен Хачанов. Абу-Даби 2018. 1/2 финала

Год выпуска: 28.12.2018 18:10
Вид спорта: Теннис
Участники: Новак Джокович - Карен Хачанов. Абу-Даби 2018. Выставочный турнир. 1/2 финала
Комментарий: Профессиональный Португальский
Качество: IPTVRip Формат: MKV
Видео кодек: H.264 Аудио кодек: MP2
Видео: MPEG4 Video H.264 1920x1080 25 fps Bit rate 4817 Kbps Aspect Ratio 16:9
Аудио: Португальский MP2 48000 Hz stereo 128 Kbps
Спасибо leomessi00 за предоставленный исходный файл
01:07:55
General
Format : Matroska
Format version : Version 4 / Version 2
File size : 2.39 GiB
Duration : 1 h 7 min
Overall bit rate : 5 046 kb/s
Movie name : N.Djokovic - K.Khachanov.Abu Dhabi 2018.SF
Encoded date : UTC 2010-02-22 21:41:31
Writing application : mkvmerge v5.9.0 ('On The Loose') built on Dec 9 2012 15:37:01
Writing library : libebml v1.3.0 + libmatroska v1.4.0

Video
ID : 1
Format : AVC
Format/Info : Advanced Video Codec
Format profile : High@L4
Format settings : CABAC / 4 Ref Frames
Format settings, CABAC : Yes
Format settings, RefFrames : 4 frames
Codec ID : V_MPEG4/ISO/AVC
Duration : 1 h 7 min
Bit rate : 4 817 kb/s
Width : 1 920 pixels
Height : 1 080 pixels
Display aspect ratio : 16:9
Frame rate mode : Constant
Frame rate : 50.000 FPS
Original frame rate : 25.000 FPS
Standard : Component
Color space : YUV
Chroma subsampling : 4:2:0
Bit depth : 8 bits
Scan type : Interlaced
Scan type, store method : Separated fields
Scan order : Top Field First
Bits/(Pixel*Frame) : 0.046
Stream size : 2.29 GiB (95%)
Language : English
Default : Yes
Forced : No
Color range : Limited
Color primaries : BT.709
Transfer characteristics : BT.709
Matrix coefficients : BT.709

Audio
ID : 2
Format : MPEG Audio
Format version : Version 1
Format profile : Layer 2
Codec ID : A_MPEG/L2
Codec ID/Hint : MP2
Duration : 1 h 7 min
Bit rate mode : Constant
Bit rate : 128 kb/s
Channel(s) : 2 channels
Sampling rate : 48.0 kHz
Compression mode : Lossy
Delay relative to video : 10 ms
Stream size : 62.2 MiB (3%)
Language : Portuguese
Default : Yes
Forced : No

_________________
Donate: Yandexmoney 410011809224246
Сбербанк 4274 3200 2947 3116
Profile PM

danaee


Стаж: 7 лет 6 месяцев

Сообщений: 8

Торрент-статистика

post 06-Янв-2019 21:09 (спустя 8 дней)

Quote


А второй полуфинал и финал планируются? Была бы очень благодарна посмотреть в записи то, что видела вживую :-)
С Рождеством!
Profile PM
Ответить на тему