Андре Агасси. Звездные Судьбы / Документальный фильм / "Домашний" [2007, SD, XviD, RU, TV]

Ответить на тему

Автор Сообщение

oleg_1954


Стаж: 6 лет

Сообщений: 7811

Откуда: Волгоград

Россия

Торрент-статистика

post 19-Окт-2012 18:00

Quote


Андре Агасси. Звездные Судьбы

Год выпуска: 2007
Описание: Документальный фильм из цикла "Звездные судьбы"
Перевод: Одноголосый закадровый
Продолжительность: 00:41:52
Качество: TVRip
Формат: AVI
Видео кодек: XviD
Аудио кодек: MP3
Видео: MPEG4 XviD 608x434 25.00 fps Bit rate 994 Kbps Aspect Ratio 1.401
Аудио: Русский MP3 48000 Hz stereo 128 Kbps
Рип собственный, из моих архивов.
General
Format : AVI
Format/Info : Audio Video Interleave
File size : 339 MiB
Duration : 41mn 52s
Overall bit rate : 1 131 Kbps
Writing application : VirtualDubMod 1.5.10.1 (build 2439/release)
Writing library : VirtualDubMod build 2439/release

Video
ID : 0
Format : MPEG-4 Visual
Format profile : Advanced Simple@L5
Format settings, BVOP : 2
Format settings, QPel : No
Format settings, GMC : No warppoints
Format settings, Matrix : Default (H.263)
Codec ID : XVID
Codec ID/Hint : XviD
Duration : 41mn 52s
Bit rate : 994 Kbps
Width : 608 pixels
Height : 434 pixels
Display aspect ratio : 1.401
Frame rate : 25.000 fps
Color space : YUV
Chroma subsampling : 4:2:0
Bit depth : 8 bits
Scan type : Progressive
Compression mode : Lossy
Bits/(Pixel*Frame) : 0.151
Stream size : 298 MiB (88%)
Writing library : XviD 1.1.2 (UTC 2006-11-01)

Audio
ID : 1
Format : MPEG Audio
Format version : Version 1
Format profile : Layer 3
Mode : Joint stereo
Codec ID : 55
Codec ID/Hint : MP3
Duration : 41mn 52s
Bit rate mode : Constant
Bit rate : 128 Kbps
Channel(s) : 2 channels
Sampling rate : 48.0 KHz
Compression mode : Lossy
Stream size : 38.3 MiB (11%)
Alignment : Aligned on interleaves
Interleave, duration : 40 ms (1.00 video frame)
Interleave, preload duration : 504 ms

_________________
Donate:
Sberbank 4276 1100 1055 1402
Yandexmoney 410011231407235
Profile PM

AlbertoneRF


Стаж: 4 года 6 месяцев

Сообщений: 10

Россия

Торрент-статистика

post 02-Июн-2016 19:34 (спустя 3 года 7 месяцев)

Quote


Огромное спасибо за раритет! Посидируйте, пожалуйста.
Profile PM
Ответить на тему