GP2 SERIES-2013. Этап 08. Гран При Бельгии. Гонка 1. Sky Sport 1 HD [24.08.2013, HD, 1080i, RU, DVB-S2 Remux]

Ответить на тему

Автор Сообщение

SashaR.


Стаж: 3 года 3 месяца

Сообщений: 59

Откуда: Питер

Россия

Торрент-статистика

post 24-Авг-2013 22:30

Quote


GP2 SERIES-2013. Этап 08. Гран При Бельгии. Гонка 1. Sky Sport 1 HD
Вид спорта: Автогонки
Дата/Год выпуска: 22.03.13
Язык комментариев: немецкий + интершум

Автор записи: SashaR.

Качество: DVB-S2 Remux
Формат видео: TS
Видео: AVC, 1920x1080, 16:9, 9 218 Kbps, 25 fps
Аудио: AC-3, 384 Kbps, 48.0 kHz, 6 channels
Аудио: AC-3, 192 Kbps, 48.0 kHz, 2 channels
Аудио: AC-3, 224 Kbps, 48.0 kHz, 2 channels (интершум)
F:РаздачиGP2-2013. Spa-Francorchamps. Race 1. (Sky Sport 1 HD).ts
General #6
ID : 6 (0x6)
Complete name : F:РаздачиGP2-2013. Spa-Francorchamps. Race 1. (Sky Sport 1 HD).ts
Format : MPEG-TS
File size : 5.49 GiB
Duration : 1h 14mn
Overall bit rate mode : Variable
Overall bit rate : 10.5 Mbps
Video #767
ID : 767 (0x2FF)
Menu ID : 129 (0x81)
Format : AVC
Format/Info : Advanced Video Codec
Format profile : High@L4.0
Format settings, CABAC : Yes
Format settings, ReFrames : 3 frames
Codec ID : 27
Duration : 1h 14mn
Bit rate : 9 218 Kbps
Width : 1 920 pixels
Height : 1 080 pixels
Display aspect ratio : 16:9
Frame rate : 25.000 fps
Standard : Component
Color space : YUV
Chroma subsampling : 4:2:0
Bit depth : 8 bits
Scan type : Interlaced
Scan order : Top Field First
Bits/(Pixel*Frame) : 0.178
Stream size : 4.79 GiB (87%)
Color primaries : BT.709
Transfer characteristics : BT.709
Matrix coefficients : BT.709
Audio #770
ID : 770 (0x302)
Menu ID : 129 (0x81)
Format : AC-3
Format/Info : Audio Coding 3
Mode extension : CM (complete main)
Format settings, Endianness : Big
Codec ID : 6
Duration : 1h 14mn
Bit rate mode : Constant
Bit rate : 192 Kbps
Channel count : 2 channels
Channel positions : Front: L R
Sampling rate : 48.0 KHz
Bit depth : 16 bits
Compression mode : Lossy
Delay relative to video : 37ms
Stream size : 102 MiB (2%)
Language : German
Language, more info : Clean effects
Audio #771
ID : 771 (0x303)
Menu ID : 129 (0x81)
Format : AC-3
Format/Info : Audio Coding 3
Mode extension : CM (complete main)
Format settings, Endianness : Big
Codec ID : 6
Duration : 1h 14mn
Bit rate mode : Constant
Bit rate : 384 Kbps
Channel count : 6 channels
Channel positions : Front: L C R, Side: L R, LFE
Sampling rate : 48.0 KHz
Bit depth : 16 bits
Compression mode : Lossy
Delay relative to video : 46ms
Stream size : 205 MiB (4%)
Language : German
Language, more info : Clean effects
Audio #772
ID : 772 (0x304)
Menu ID : 129 (0x81)
Format : AC-3
Format/Info : Audio Coding 3
Mode extension : CM (complete main)
Format settings, Endianness : Big
Codec ID : 6
Duration : 1h 14mn
Bit rate mode : Constant
Bit rate : 224 Kbps
Channel count : 2 channels
Channel positions : Front: L R
Sampling rate : 48.0 KHz
Bit depth : 16 bits
Compression mode : Lossy
Delay relative to video : 26ms
Stream size : 119 MiB (2%)
Language : English
Language, more info : Clean effects
Profile PM
Ответить на тему