GP3 SERIES-2013. Этап 06. Гран При Бельгии. Гонка 2. Eurosport HD [24.08.2013, HD, 1080i, RU-ENG, DVB-S2 Remux]

Ответить на тему

Автор Сообщение

SashaR.


Стаж: 3 года 3 месяца

Сообщений: 59

Откуда: Питер

Россия

Торрент-статистика

post 25-Авг-2013 13:02

Quote


GP3 SERIES-2013. Этап 06. Гран При Бельгии. Гонка 2. Eurosport HD
Вид спорта: Автогонки
Дата/Год выпуска: 22.03.13
Язык комментариев: русский, английский

Автор записи: SashaR.

Качество: DVB-S2 Remux
Формат видео: TS
Видео: AVC, 1920x1080, 16:9, 9 395 Kbps, 25 fps
Аудио: MP2, 192 Kbps, 48.0 kHz, 2 channels
J:GP3 SERIES-2013. Этап 06. Гран При Бельгии. Гонка 2 (Eurosport HD).ts
General #6
ID : 6 (0x6)
Complete name : J:GP3 SERIES-2013. Этап 06. Гран При Бельгии. Гонка 2 (Eurosport HD).ts
Format : MPEG-TS
File size : 3.27 GiB
Duration : 45mn 25s
Overall bit rate mode : Variable
Overall bit rate : 10.3 Mbps
Video #324
ID : 324 (0x144)
Menu ID : 12104 (0x2F48)
Format : AVC
Format/Info : Advanced Video Codec
Format profile : High@L4.0
Format settings, CABAC : Yes
Format settings, ReFrames : 3 frames
Format settings, GOP : M=4, N=28
Codec ID : 27
Duration : 45mn 24s
Bit rate : 9 395 Kbps
Width : 1 920 pixels
Height : 1 080 pixels
Display aspect ratio : 16:9
Frame rate : 25.000 fps
Standard : Component
Color space : YUV
Chroma subsampling : 4:2:0
Bit depth : 8 bits
Scan type : Interlaced
Scan order : Top Field First
Bits/(Pixel*Frame) : 0.181
Stream size : 2.98 GiB (91%)
Color primaries : BT.709
Transfer characteristics : BT.709
Matrix coefficients : BT.709
Audio #404
ID : 404 (0x194)
Menu ID : 12104 (0x2F48)
Format : MPEG Audio
Format version : Version 1
Format profile : Layer 2
Codec ID : 4
Duration : 45mn 25s
Bit rate mode : Constant
Bit rate : 192 Kbps
Channel count : 2 channels
Sampling rate : 48.0 KHz
Compression mode : Lossy
Delay relative to video : -14ms
Stream size : 62.4 MiB (2%)
Language : Russian
Language, more info : Clean effects
Audio #424
ID : 424 (0x1A8)
Menu ID : 12104 (0x2F48)
Format : MPEG Audio
Format version : Version 1
Format profile : Layer 2
Codec ID : 4
Duration : 45mn 25s
Bit rate mode : Constant
Bit rate : 192 Kbps
Channel count : 2 channels
Sampling rate : 48.0 KHz
Compression mode : Lossy
Delay relative to video : 10ms
Stream size : 62.4 MiB (2%)
Language : English
Language, more info : Clean effects
00:45:25
Profile PM
Ответить на тему