GP2 SERIES-2013. Этап 08. Гран При Бельгии. Гонка 2. Спорт 1 HD [24.08.2013, HD, 1080i, RU, DVB-S2 Remux]

Ответить на тему

Автор Сообщение

SashaR.


Стаж: 3 года 3 месяца

Сообщений: 59

Откуда: Питер

Россия

Торрент-статистика

post 25-Авг-2013 14:08

Quote


GP2 SERIES-2013. Этап 08. Гран При Бельгии. Гонка 2
Вид спорта: Автогонки
Дата/Год выпуска: 24.03.13
Язык комментариев: русский

Автор записи: SashaR.

Качество: DVB-S2 Remux
Формат видео: TS
Видео: AVC, 1920x1080, 16:9, 11.7 Mbps, 25 fps
Аудио: MP2, 192 Kbps, 48.0 kHz, 2 channels
F:РаздачиGP2-2013. Spa-Francorchamps. Race 2. (Спорт 1 HD).ts
General #6
ID : 6 (0x6)
Complete name : F:РаздачиGP2-2013. Spa-Francorchamps. Race 2. (Спорт 1 HD).ts
Format : MPEG-TS
File size : 6.17 GiB
Duration : 1h 10mn
Overall bit rate mode : Variable
Overall bit rate : 12.5 Mbps
Video #303
ID : 303 (0x12F)
Menu ID : 20103 (0x4E87)
Format : AVC
Format/Info : Advanced Video Codec
Format profile : High@L4.0
Format settings, CABAC : Yes
Format settings, ReFrames : 3 frames
Format settings, GOP : M=4, N=28
Codec ID : 27
Duration : 1h 10mn
Bit rate : 11.7 Mbps
Width : 1 920 pixels
Height : 1 080 pixels
Display aspect ratio : 16:9
Frame rate : 25.000 fps
Standard : Component
Color space : YUV
Chroma subsampling : 4:2:0
Bit depth : 8 bits
Scan type : Interlaced
Scan order : Top Field First
Bits/(Pixel*Frame) : 0.225
Stream size : 5.76 GiB (93%)
Color primaries : BT.709
Transfer characteristics : BT.709
Matrix coefficients : BT.709
Audio #403
ID : 403 (0x193)
Menu ID : 20103 (0x4E87)
Format : MPEG Audio
Format version : Version 1
Format profile : Layer 2
Codec ID : 4
Duration : 1h 10mn
Bit rate mode : Constant
Bit rate : 192 Kbps
Channel count : 2 channels
Sampling rate : 48.0 KHz
Compression mode : Lossy
Delay relative to video : -146ms
Stream size : 97.0 MiB (2%)
Language : Russian
Profile PM

AsRoma83


Стаж: 6 лет

Сообщений: 64

Откуда: РЯЗАНЬ - ЧЕРНИГОВ

Италия

Торрент-статистика

post 25-Авг-2013 14:40 (спустя 32 минуты)

Quote


Агов, где скорость?

_________________
Some people think football is a matter of life and death. I assure you, it's much more serious than that.(Bill Shankly)
Profile PM

AsRoma83


Стаж: 6 лет

Сообщений: 64

Откуда: РЯЗАНЬ - ЧЕРНИГОВ

Италия

Торрент-статистика

post 25-Авг-2013 15:30 (спустя 49 минут)

Quote


Я в шоке. За час 2%... SashaR. какой у тебя канал? Смысл делать 8 раздач, если скорости нет

_________________
Some people think football is a matter of life and death. I assure you, it's much more serious than that.(Bill Shankly)
Profile PM

SashaR.


Стаж: 3 года 3 месяца

Сообщений: 59

Откуда: Питер

Россия

Торрент-статистика

post 25-Авг-2013 15:54 (спустя 23 минуты)

Quote


Какой смысл жить в России, если есть Америка?
Profile PM

AsRoma83


Стаж: 6 лет

Сообщений: 64

Откуда: РЯЗАНЬ - ЧЕРНИГОВ

Италия

Торрент-статистика

post 25-Авг-2013 18:35 (спустя 2 часа 41 минута)

Quote


Ты часом не еврей, вопросом на вопрос отвечать? Америка сосала и дальше сосать будет, но каким боком это к вышесказанному относится?
Можно норм канал открыть до появления первого скачавшего, а не заниматься хернёй...

_________________
Some people think football is a matter of life and death. I assure you, it's much more serious than that.(Bill Shankly)
Profile PM

SashaR.


Стаж: 3 года 3 месяца

Сообщений: 59

Откуда: Питер

Россия

Торрент-статистика

post 26-Авг-2013 04:05 (спустя 9 часов)

Quote


вот и подумай...
Profile PM
Ответить на тему