Porsche Supercup - 2013. Этап 06. Бельгия. Квалификация, Гонка. Спорт 1 HD [24-25.08.2013, HD, 1080i, RU, DVB-S2 Remux]

Ответить на тему

Автор Сообщение

SashaR.


Стаж: 3 года 3 месяца

Сообщений: 59

Откуда: Питер

Россия

Торрент-статистика

post 25-Авг-2013 15:13

Quote


Porsche SuperCup / Суперкубок Порше 2013. Этап 06. Бельгия

Вид спорта: Автогонки
Дата/Год выпуска: 28.07.13
Язык комментариев: русский

Автор записи: SashaR.

Качество: DVB-S2 Remux
Формат видео: TS
Видео: AVC, 1920x1080, 16:9, 12.0 Mbps, 25 fps
Аудио: MP2, 192 Kbps, 48.0 kHz, 2 channels
F:\Раздачи\Porsche Supercup - 2013. Этап 06 (Спорт 1 HD)\Гонка.ts
General #6
ID : 6 (0x6)
Complete name : F:\Раздачи\Porsche Supercup - 2013. Этап 06 (Спорт 1 HD)\Гонка.ts
Format : MPEG-TS
File size : 3.49 GiB
Duration : 38mn 58s
Overall bit rate mode : Variable
Overall bit rate : 12.8 Mbps
Video #303
ID : 303 (0x12F)
Menu ID : 20103 (0x4E87)
Format : AVC
Format/Info : Advanced Video Codec
Format profile : High@L4.0
Format settings, CABAC : Yes
Format settings, ReFrames : 3 frames
Format settings, GOP : M=4, N=28
Codec ID : 27
Duration : 38mn 57s
Bit rate : 12.0 Mbps
Width : 1 920 pixels
Height : 1 080 pixels
Display aspect ratio : 16:9
Frame rate : 25.000 fps
Standard : Component
Color space : YUV
Chroma subsampling : 4:2:0
Bit depth : 8 bits
Scan type : Interlaced
Scan order : Top Field First
Bits/(Pixel*Frame) : 0.231
Stream size : 3.27 GiB (94%)
Color primaries : BT.709
Transfer characteristics : BT.709
Matrix coefficients : BT.709
Audio #403
ID : 403 (0x193)
Menu ID : 20103 (0x4E87)
Format : MPEG Audio
Format version : Version 1
Format profile : Layer 2
Codec ID : 4
Duration : 38mn 57s
Bit rate mode : Constant
Bit rate : 192 Kbps
Channel count : 2 channels
Sampling rate : 48.0 KHz
Compression mode : Lossy
Delay relative to video : 130ms
Stream size : 53.5 MiB (1%)
Language : Russian
00:14:00 + 00:38:58
Profile PM
Ответить на тему