MotoGP 2013 / Этап 12 из 18 / Moto2 / FP1 / Hertz British Grand Prix / Sport 1+ [30.08.13, Футбол, DVB-S2 Remux, 1080i, DE]

Ответить на тему

Автор Сообщение

SashaR.


Стаж: 3 года 3 месяца

Сообщений: 59

Откуда: Питер

Россия

Торрент-статистика

post 30-Авг-2013 15:57

Quote


MotoGP 2013 / Этап 12 из 18 / Hertz British Grand Prix / Moto2 / FP1

Вид спорта: Футбол
Дата/Год выпуска: 25.08.13
Язык комментариев: немецкий
Автор записи: SashaR.

Качество: DVB-S2 Remux
Формат видео: TS
Видео: AVC, 1920x1080, 16:9, 9 172 Kbps, 25 fps
Аудио: AC-3, 384 kbps, 48 kHz, 6 channels
F:РаздачиMotoGP 2013. Этап 12 из 18. Moto2. FP1.ts
General #6
ID : 6 (0x6)
Complete name : F:РаздачиMotoGP 2013. Этап 12 из 18. Moto2. FP1.ts
Format : MPEG-TS
File size : 3.83 GiB
Duration : 54mn 34s
Overall bit rate mode : Variable
Overall bit rate : 10.1 Mbps
Video #1279
ID : 1279 (0x4FF)
Menu ID : 122 (0x7A)
Format : AVC
Format/Info : Advanced Video Codec
Format profile : High@L4.0
Format settings, CABAC : Yes
Format settings, ReFrames : 3 frames
Format settings, GOP : M=4, N=28
Codec ID : 27
Duration : 54mn 33s
Bit rate : 9 172 Kbps
Width : 1 920 pixels
Height : 1 080 pixels
Display aspect ratio : 16:9
Frame rate : 25.000 fps
Standard : Component
Color space : YUV
Chroma subsampling : 4:2:0
Bit depth : 8 bits
Scan type : Interlaced
Scan order : Top Field First
Bits/(Pixel*Frame) : 0.177
Stream size : 3.50 GiB (91%)
Color primaries : BT.709
Transfer characteristics : BT.709
Matrix coefficients : BT.709
Audio #1283
ID : 1283 (0x503)
Menu ID : 122 (0x7A)
Format : AC-3
Format/Info : Audio Coding 3
Mode extension : CM (complete main)
Format settings, Endianness : Big
Codec ID : 6
Duration : 54mn 33s
Bit rate mode : Constant
Bit rate : 384 Kbps
Channel count : 6 channels
Channel positions : Front: L C R, Side: L R, LFE
Sampling rate : 48.0 KHz
Bit depth : 16 bits
Compression mode : Lossy
Delay relative to video : 176ms
Stream size : 150 MiB (4%)
Language : German
Language, more info : Clean effects
00:54:34
Profile PM
Ответить на тему