WSBK-2013. Round 10. STK1000. Nurburgring [01.09.13, Мотогонки, DVB Remux, 576i, RU-ENG]

Ответить на тему

Автор Сообщение

SashaR.


Стаж: 3 года 3 месяца

Сообщений: 59

Откуда: Питер

Россия

Торрент-статистика

post 02-Сен-2013 18:43

Quote


WSBK-2013. Round 10. STK1000. Nurburgring

Вид спорта: Футбол
Дата/Год выпуска: 25.08.13
Язык комментариев: немецкий
Автор записи: SashaR.

Качество: DVB-S2 Remux
Формат видео: TS
Язык комментариев: русский, английский
Видео: AVC, 720x576, 16:9, 2 884 Kbps, 25 fps
Аудио: MP2, 96.0 Kbps, 48 kHz, 2 channels
Аудио: MP2, 96.0 Kbps, 48 kHz, 2 channels
F:\Раздачи\WSBK - Round 10 - STK1000 - Nurburgring.ts
General #6
ID : 6 (0x6)
Complete name : F:\Раздачи\WSBK - Round 10 - STK1000 - Nurburgring.ts
Format : MPEG-TS
File size : 697 MiB
Duration : 29mn 9s
Overall bit rate mode : Variable
Overall bit rate : 3 340 Kbps
Video #322
ID : 322 (0x142)
Menu ID : 20703 (0x50DF)
Format : MPEG Video
Format version : Version 2
Format profile : Main@Main
Format settings, BVOP : Yes
Format settings, Matrix : Custom
Format settings, GOP : M=3, N=12
Codec ID : 2
Duration : 29mn 9s
Bit rate mode : Variable
Bit rate : 2 884 Kbps
Maximum bit rate : 5 000 Kbps
Width : 720 pixels
Height : 576 pixels
Display aspect ratio : 16:9
Frame rate : 25.000 fps
Standard : PAL
Color space : YUV
Chroma subsampling : 4:2:0
Bit depth : 8 bits
Scan type : Interlaced
Scan order : Top Field First
Compression mode : Lossy
Bits/(Pixel*Frame) : 0.278
Stream size : 601 MiB (86%)
Audio #404
ID : 404 (0x194)
Menu ID : 20703 (0x50DF)
Format : MPEG Audio
Format version : Version 1
Format profile : Layer 2
Codec ID : 4
Duration : 29mn 9s
Bit rate mode : Constant
Bit rate : 192 Kbps
Channel count : 2 channels
Sampling rate : 48.0 KHz
Compression mode : Lossy
Delay relative to video : 33ms
Stream size : 40.0 MiB (6%)
Language : Russian
Language, more info : Clean effects
Audio #405
ID : 405 (0x195)
Menu ID : 20703 (0x50DF)
Format : MPEG Audio
Format version : Version 1
Format profile : Layer 2
Codec ID : 4
Duration : 29mn 9s
Bit rate mode : Constant
Bit rate : 96.0 Kbps
Channel count : 1 channel
Sampling rate : 48.0 KHz
Compression mode : Lossy
Delay relative to video : 149ms
Stream size : 20.0 MiB (3%)
Language : English
Language, more info : Clean effects
00:29:09
Profile PM
Ответить на тему