Auto GP-2013. Этап 07. DONINGTON PARK. Race 1 [01.09.13, Автогонки, DVB Remux, 576i, RU-ENG]

Ответить на тему

Автор Сообщение

SashaR.


Стаж: 3 года 3 месяца

Сообщений: 59

Откуда: Питер

Россия

Торрент-статистика

post 02-Сен-2013 18:52

Quote


Auto GP-2013. Этап 07. DONINGTON PARK. Race 1

Вид спорта: Футбол
Дата/Год выпуска: 25.08.13
Язык комментариев: русский, английский
Автор записи: SashaR.

Качество: DVB-S2 Remux
Формат видео: TS
Язык комментариев: русский, английский
Видео: AVC, 720x576, 16:9, 2 771 Kbps, 25 fps
Аудио: MP2, 96.0 Kbps, 48 kHz, 2 channels
Аудио: MP2, 96.0 Kbps, 48 kHz, 2 channels
F:\Раздачи\Auto GP-2013. Этап 07. DONINGTON PARK. Race 1.ts
General #6
ID : 6 (0x6)
Complete name : F:\Раздачи\Auto GP-2013. Этап 07. DONINGTON PARK. Race 1.ts
Format : MPEG-TS
File size : 846 MiB
Duration : 36mn 42s
Overall bit rate mode : Variable
Overall bit rate : 3 221 Kbps
Video #322
ID : 322 (0x142)
Menu ID : 20703 (0x50DF)
Format : MPEG Video
Format version : Version 2
Format profile : Main@Main
Format settings, BVOP : Yes
Format settings, Matrix : Custom
Format settings, GOP : M=3, N=12
Codec ID : 2
Duration : 36mn 41s
Bit rate mode : Variable
Bit rate : 2 771 Kbps
Maximum bit rate : 5 000 Kbps
Width : 720 pixels
Height : 576 pixels
Display aspect ratio : 16:9
Frame rate : 25.000 fps
Standard : PAL
Color space : YUV
Chroma subsampling : 4:2:0
Bit depth : 8 bits
Scan type : Interlaced
Scan order : Top Field First
Compression mode : Lossy
Bits/(Pixel*Frame) : 0.267
Stream size : 727 MiB (86%)
Audio #404
ID : 404 (0x194)
Menu ID : 20703 (0x50DF)
Format : MPEG Audio
Format version : Version 1
Format profile : Layer 2
Codec ID : 4
Duration : 36mn 42s
Bit rate mode : Constant
Bit rate : 192 Kbps
Channel count : 2 channels
Sampling rate : 48.0 KHz
Compression mode : Lossy
Delay relative to video : 33ms
Stream size : 50.4 MiB (6%)
Language : Russian
Language, more info : Clean effects
Audio #405
ID : 405 (0x195)
Menu ID : 20703 (0x50DF)
Format : MPEG Audio
Format version : Version 1
Format profile : Layer 2
Codec ID : 4
Duration : 36mn 42s
Bit rate mode : Constant
Bit rate : 96.0 Kbps
Channel count : 1 channel
Sampling rate : 48.0 KHz
Compression mode : Lossy
Delay relative to video : 130ms
Stream size : 25.2 MiB (3%)
Language : English
Language, more info : Clean effects
00:36:21
Profile PM

sevaRG_BLR


Стаж: 5 лет 4 месяца

Сообщений: 38

Откуда: Тамошние мы

Торрент-статистика

post 02-Сен-2013 21:00 (спустя 2 часа 8 минут)

Quote


Раздача не скачивается.


Последний раз редактировалось: sevaRG_BLR (2013-09-04 21:46), всего редактировалось 1 раз
Profile PM

DAMON87


Стаж: 3 года 3 месяца

Сообщений: 4

Торрент-статистика

post 03-Сен-2013 19:16 (спустя 22 часа)

Quote


Ребят, раздача не идет!!!!
Profile PM

sevaRG_BLR


Стаж: 5 лет 4 месяца

Сообщений: 38

Откуда: Тамошние мы

Торрент-статистика

post 07-Сен-2013 20:49 (спустя 4 дня)

Quote


Не знаю кому говорить спасибо за то, что позволили докачать гонку (6 дней качал). Но палюбому ГРАНД МЕРСИ. ay
Profile PM

DAMON87


Стаж: 3 года 3 месяца

Сообщений: 4

Торрент-статистика

post 07-Сен-2013 20:53 (спустя 3 минуты)

Quote


sevaRG_BLR
о у меня в клиенте отданные мегабайты появились, хотя я сеял с тех пор как скачал несколько дней назад, постоянно
Profile PM

sevaRG_BLR


Стаж: 5 лет 4 месяца

Сообщений: 38

Откуда: Тамошние мы

Торрент-статистика

post 07-Сен-2013 21:54 (спустя 1 час 1 минута)

Quote


DAMON87, так я смотрю если бы не CryF4r я бы так свои 195 Мбт и не скачал. Может у них с разными торрент-клиентами какие-то проблемы. Ведь по идее я должен был с тебя докачать свои 23 %.
Profile PM
Ответить на тему