WSBK-2013. Round 10. SuperBike. Nurburgring. Race 1 [01.09.13, Мотогонки, DVB-S2 Remux, 1080i, RU-ENG]

Ответить на тему

Автор Сообщение

SashaR.


Стаж: 3 года 3 месяца

Сообщений: 59

Откуда: Питер

Россия

Торрент-статистика

post 02-Сен-2013 20:17

Quote


WSBK-2013. Round 10. SuperBike. Nurburgring. Race 1

Вид спорта: Футбол
Дата/Год выпуска: 25.08.13
Язык комментариев: русский, английский
Автор записи: SashaR.

Качество: DVB-S2 Remux
Формат видео: TS
Язык комментариев: русский, английский
Видео: AVC, 1080x720, 16:9, 9 823 Kbps, 25 fps
Аудио: MP2, 192 Kbps, 48 kHz, 2 channels
Аудио: MP2, 192 Kbps, 48 kHz, 2 channels
F:\Раздачи\WSBK - Round 10 - SuperBike - Nurburgring.ts
General #6
ID : 6 (0x6)
Complete name : F:\Раздачи\WSBK - Round 10 - SuperBike - Nurburgring.ts
Format : MPEG-TS
File size : 3.15 GiB
Duration : 41mn 56s
Overall bit rate mode : Variable
Overall bit rate : 10.7 Mbps
Video #324
ID : 324 (0x144)
Menu ID : 12104 (0x2F48)
Format : AVC
Format/Info : Advanced Video Codec
Format profile : High@L4.0
Format settings, CABAC : Yes
Format settings, ReFrames : 3 frames
Codec ID : 27
Duration : 41mn 55s
Bit rate : 9 823 Kbps
Width : 1 920 pixels
Height : 1 080 pixels
Display aspect ratio : 16:9
Frame rate : 25.000 fps
Standard : Component
Color space : YUV
Chroma subsampling : 4:2:0
Bit depth : 8 bits
Scan type : Interlaced
Scan order : Top Field First
Bits/(Pixel*Frame) : 0.189
Stream size : 2.88 GiB (91%)
Color primaries : BT.709
Transfer characteristics : BT.709
Matrix coefficients : BT.709
Audio #404
ID : 404 (0x194)
Menu ID : 12104 (0x2F48)
Format : MPEG Audio
Format version : Version 1
Format profile : Layer 2
Codec ID : 4
Duration : 41mn 56s
Bit rate mode : Constant
Bit rate : 192 Kbps
Channel count : 2 channels
Sampling rate : 48.0 KHz
Compression mode : Lossy
Delay relative to video : 254ms
Stream size : 57.6 MiB (2%)
Language : Russian
Language, more info : Clean effects
Audio #424
ID : 424 (0x1A8)
Menu ID : 12104 (0x2F48)
Format : MPEG Audio
Format version : Version 1
Format profile : Layer 2
Codec ID : 4
Duration : 41mn 56s
Bit rate mode : Constant
Bit rate : 192 Kbps
Channel count : 2 channels
Sampling rate : 48.0 KHz
Compression mode : Lossy
Delay relative to video : 134ms
Stream size : 57.6 MiB (2%)
Language : English
Language, more info : Clean effects
00:41:56
Profile PM
Ответить на тему