MotoGP 2013 / Этап 12 из 18 / MotoGP, Moto 2, Moto 3 / Hertz British Grand Prix / Квалификации / Sport 1+ [31.08.13, Футбол, DVB-S2 Remux, 1080i, DE]

Ответить на тему

Автор Сообщение

SashaR.


Стаж: 3 года 3 месяца

Сообщений: 59

Откуда: Питер

Россия

Торрент-статистика

post 02-Сен-2013 22:15

Quote


MotoGP 2013 / Этап 12 из 18 / MotoGP, Moto 2, Moto 3 / Hertz British Grand Prix / Квалификации

Вид спорта: Футбол
Дата/Год выпуска: 25.08.13
Язык комментариев: немецкий
Автор записи: SashaR.

Качество: DVB-S2 Remux
Формат видео: TS
Видео: AVC, 1920x1080, 16:9, 7 752 Kbps, 25 fps
Аудио: AC-3, 384 kbps, 48 kHz, 6 channels
F:\Раздачи\MotoGP 2013. Этап 12 из 18. Квалификация\MotoGP FP4 + Q.ts
General #6
ID : 6 (0x6)
Complete name : F:\Раздачи\MotoGP 2013. Этап 12 из 18. Квалификация\MotoGP FP4 + Q.ts
Format : MPEG-TS
File size : 6.38 GiB
Duration : 1h 46mn
Overall bit rate mode : Variable
Overall bit rate : 8 563 Kbps
Video #1279
ID : 1279 (0x4FF)
Menu ID : 122 (0x7A)
Format : AVC
Format/Info : Advanced Video Codec
Codec ID : 27
Duration : 1h 46mn
Bit rate : 7 752 Kbps
Stream size : 5.77 GiB (91%)
Audio #1283
ID : 1283 (0x503)
Menu ID : 122 (0x7A)
Format : AC-3
Format/Info : Audio Coding 3
Mode extension : CM (complete main)
Format settings, Endianness : Big
Codec ID : 6
Duration : 160ms
Bit rate mode : Constant
Bit rate : 384 Kbps
Channel count : 6 channels
Channel positions : Front: L C R, Side: L R, LFE
Sampling rate : 48.0 KHz
Bit depth : 16 bits
Compression mode : Lossy
Stream size : 7.50 KiB (0%)
Language : German
Language, more info : Clean effects
Moto 3 - 00:50:13
Moto 2 - 00:47:01
Moto GP - 01:46:35
Profile PM
Ответить на тему