European Rally Championship (ERC) / Этап 8 / Barum Czech Rally Zlín (Чехия) / Eurosport HD [01.09.13, Ралли, DVB-S2 Remux, 1080i, RU]

Ответить на тему

Автор Сообщение

SashaR.


Стаж: 3 года 3 месяца

Сообщений: 59

Откуда: Питер

Россия

Торрент-статистика

post 03-Сен-2013 12:48

Quote


European Rally Championship (ERC) / Этап 8 / Barum Czech Rally Zlín (Чехия)

Вид спорта: Ралли
Дата/Год выпуска: 26.07.13
Язык комментариев: русский

Автор записи: SashaR.

Качество: DVB-S2 Remux
Формат видео: TS
Видео: AVC, 1920x1080, 16:9, 8 811 Kbps, 25 fps
Аудио: MP2, 192 Kbps, 48.0 kHz, 2 channels
F:\Раздачи\European Rally Championship (ERC). Этап 8. Barum Czech Rally Zlín (Чехия).ts
General #6
ID : 6 (0x6)
Complete name : F:\Раздачи\European Rally Championship (ERC). Этап 8. Barum Czech Rally Zlín (Чехия).ts
Format : MPEG-TS
File size : 1.74 GiB
Duration : 26mn 18s
Overall bit rate mode : Variable
Overall bit rate : 9 473 Kbps
Video #324
ID : 324 (0x144)
Menu ID : 12104 (0x2F48)
Format : AVC
Format/Info : Advanced Video Codec
Format profile : High@L4.0
Format settings, CABAC : Yes
Format settings, ReFrames : 3 frames
Codec ID : 27
Duration : 26mn 17s
Bit rate : 8 811 Kbps
Width : 1 920 pixels
Height : 1 080 pixels
Display aspect ratio : 16:9
Frame rate : 25.000 fps
Standard : Component
Color space : YUV
Chroma subsampling : 4:2:0
Bit depth : 8 bits
Scan type : Interlaced
Scan order : Top Field First
Bits/(Pixel*Frame) : 0.170
Stream size : 1.62 GiB (93%)
Color primaries : BT.709
Transfer characteristics : BT.709
Matrix coefficients : BT.709
Audio #404
ID : 404 (0x194)
Menu ID : 12104 (0x2F48)
Format : MPEG Audio
Format version : Version 1
Format profile : Layer 2
Codec ID : 4
Duration : 26mn 18s
Bit rate mode : Constant
Bit rate : 192 Kbps
Channel count : 2 channels
Sampling rate : 48.0 KHz
Compression mode : Lossy
Delay relative to video : 90ms
Stream size : 36.1 MiB (2%)
Language : Russian
Language, more info : Clean effects
00:26:18
Profile PM
Ответить на тему