World Endurance Championship (WEC) 2013. Этап 4. 6 Hours of Sao Paulo / Eurosport HD [01.09.13, Автогонки на выносливость, DVB-S2 Remux, 1080i, RU]

Ответить на тему

Автор Сообщение

SashaR.


Стаж: 3 года 3 месяца

Сообщений: 59

Откуда: Питер

Россия

Торрент-статистика

post 03-Сен-2013 13:07

Quote


World Endurance Championship (WEC) 2013. Этап 4. 6 Hours of Sao Paulo

Вид спорта: Автогонки на выносливость
Участники: Audi R18 e-tron quattro, Toyota TS030 - Hybrid, HPD ARX 03c - Honda и др.
Дата/Год выпуска: 04.05.13
Язык комментариев: русский
Описание: Последний час 6-ти часовой гонки

Автор записи: SashaR.

Качество: DVB-S2 Remux
Формат видео: TS
Видео: AVC, 1920x1080, 16:9, 9 396 Kbps, 25 fps
Аудио: MP2, 192 Kbps, 48.0 kHz, 2 channels
F:\Раздачи\WEC-2013. Этап 04. 6 Hours of Sao Paulo.ts
General #6
ID : 6 (0x6)
Complete name : F:\Раздачи\WEC-2013. Этап 04. 6 Hours of Sao Paulo.ts
Format : MPEG-TS
File size : 2.08 GiB
Duration : 30mn 4s
Overall bit rate mode : Variable
Overall bit rate : 9 891 Kbps
Video #324
ID : 324 (0x144)
Menu ID : 12104 (0x2F48)
Format : AVC
Format/Info : Advanced Video Codec
Format profile : High@L4.0
Format settings, CABAC : Yes
Format settings, ReFrames : 3 frames
Codec ID : 27
Duration : 30mn 3s
Bit rate : 9 208 Kbps
Width : 1 920 pixels
Height : 1 080 pixels
Display aspect ratio : 16:9
Frame rate : 25.000 fps
Standard : Component
Color space : YUV
Chroma subsampling : 4:2:0
Bit depth : 8 bits
Scan type : Interlaced
Scan order : Top Field First
Bits/(Pixel*Frame) : 0.178
Stream size : 1.93 GiB (93%)
Color primaries : BT.709
Transfer characteristics : BT.709
Matrix coefficients : BT.709
Audio #404
ID : 404 (0x194)
Menu ID : 12104 (0x2F48)
Format : MPEG Audio
Format version : Version 1
Format profile : Layer 2
Codec ID : 4
Duration : 30mn 4s
Bit rate mode : Constant
Bit rate : 192 Kbps
Channel count : 2 channels
Sampling rate : 48.0 KHz
Compression mode : Lossy
Delay relative to video : -6ms
Stream size : 41.3 MiB (2%)
Language : Russian
Language, more info : Clean effects
00:30:04


Последний раз редактировалось: SashaR. (2013-09-07 00:30), всего редактировалось 1 раз
Profile PM

DAMON87


Стаж: 3 года 3 месяца

Сообщений: 4

Торрент-статистика

post 04-Сен-2013 22:35 (спустя 1 день 9 часов)

Quote


че-то опять не идет....
Profile PM

DAMON87


Стаж: 3 года 3 месяца

Сообщений: 4

Торрент-статистика

post 06-Сен-2013 10:19 (спустя 1 день 11 часов)

Quote


3-й день 0%, трекер чтоли тупит....
Profile PM
Ответить на тему