Лига Чемпионов 2010-11 / группа F / 6-й тур / Марсель (Франция) - Челси (Англия) / Sky England feed / Exclusive [08.12.2010, SD, H264, EN, SAT]

Тема закрыта

Автор Сообщение

Madison


Стаж: 6 лет

Сообщений: 25

Россия

Торрент-статистика

post 09-Дек-2010 04:16

Quote


Лига Чемпионов 2010-11 / группа F / 6-й тур / Марсель (Франция) - Челси (Англия) / Sky England feed / Exclusive
Год выпуска: 2010
Вид спорта: Футбол
Время матча: 08.12.10 22:45 мск
Участники: Марсель (Франция) - Челси (Англия)
Продолжительность: 51:53+49:24
Комментарий: профессиональный (двухголосый)
Язык комментария: английский
Качество: Satrip
Формат: MKV
Видео кодек: H.264
Аудио кодек: AAC
Видео: MPEG4 Video (H264) 720х400 50 fps 1500 Kbps
Аудио: AAC 48000Hz stereo 128Kbps 2 ch
Автор: Madison
Дополнительная информация: данный рип сделан с источника, имеющего битрейт видео ~ 6800 Kbps.
General
ID : 1
Complete name : G:\Record\Marsel-Chelsea_1st half.ts
Format : MPEG-TS
File size : 2.84 GiB
Duration : 51mn 52s
Overall bit rate : 7 842 Kbps

Video
ID : 224 (0xE0)
Menu ID : 258 (0x102)
Format : MPEG Video
Format version : Version 2
Format profile : Main@Main
Format settings, Matrix : Default
Duration : 51mn 52s
Bit rate mode : Variable
Bit rate : 6 786 Kbps
Nominal bit rate : 15.0 Mbps
Width : 720 pixels
Height : 576 pixels
Display aspect ratio : 16/9
Frame rate : 25.000 fps
Standard : PAL
Colorimetry : 4:2:0
Scan type : Interlaced
Scan order : Top Field First
Bits/(Pixel*Frame) : 0.655
Stream size : 2.46 GiB (87%)

Audio #1
ID : 192 (0xC0)
Menu ID : 258 (0x102)
Format : MPEG Audio
Format version : Version 1
Format profile : Layer 2
Duration : 51mn 53s
Bit rate mode : Constant
Bit rate : 256 Kbps
Channel(s) : 2 channels
Sampling rate : 48.0 KHz
Resolution : 16 bits
Video delay : 125ms
Stream size : 95.0 MiB (3%)
Language : German
Language, more info : Clean effects

Audio #2
ID : 193 (0xC1)
Menu ID : 258 (0x102)
Format : MPEG Audio
Format version : Version 1
Format profile : Layer 2
Duration : 51mn 53s
Bit rate mode : Constant
Bit rate : 256 Kbps
Channel(s) : 2 channels
Sampling rate : 48.0 KHz
Resolution : 16 bits
Video delay : 131ms
Stream size : 95.0 MiB (3%)
Language : German
Language, more info : Clean effects
Марсель (Франция)
Основной состав
30 вр Стив Манданда
3 зщ Тайе Тайво
14 зщ Лейти Ндиайе
19 зщ Габриэль Хайнце
21 зщ Сулейман Диавара
7 пз Бенуа Шейру
12 пз Шарль Каборе
18 пз Фабрис Обриэль
28 пз Матье Вальбуэна
9 нп Брандао
11 нп Лоик Реми
20 пз Андре Айю
8 пз Лучо Гонсалес
15 нп Джордан Айю
Запасные игроки
16 вр Элинтон Андраде
26 зщ Жан-Филипп Сабо
6 пз Эдуард Сиссе

Челси (Англия)
Основной состав
1 вр Петр Чех
2 зщ Бранислав Иванович
17 зщ Жозе Босингва
19 зщ Паулу Феррейра
26 зщ Джон Терри
5 пз Майкл Эссьен
7 пз Сантос Рамирес
15 пз Флоран Малуда
46 пз Джош Макичран
11 нп Дидье Дрогба
21 нп Саломон Калу
23 нп Даниэль Старридж
43 зщ Джеффри Брума
38 зщ Патрик ван Анхольт
Запасные игроки
22 вр Росс Тернбулл
12 пз Джон Оби Микель
55 пз Джакопо Сала
44 нп Гаэль Какута
Марсель (Франция) 1 - 0 Челси (Англия)


Последний раз редактировалось: Madison (2010-12-09 04:27), всего редактировалось 2 раз(а)
Profile PM
Тема закрыта