Лига Чемпионов 2010-11 / 5-й тур / Группа F / Спартак (Россия) - Марсель (Франция) / (H264, 50 Fps, интершум, exclusive) [23.11.2010, SD, H.264 50fps, INT, SAT]

Тема закрыта

Автор Сообщение

Madison


Стаж: 6 лет

Сообщений: 25

Россия

Торрент-статистика

post 24-Ноя-2010 08:11

Quote


Лига Чемпионов 2010-11 / 5-й тур / Группа F / Спартак (Россия) - Марсель (Франция) / (H264, 50 Fps интершум) [Satrip, футбол 23.11.2010 г.]
Год выпуска: 2010
Вид спорта: Футбол
Время матча: 23.11.10 22:45 мск
Участники: Спартак (Москва) - Марсель (Франция)
Продолжительность: 42:58+52:11
Комментарий: отсутствует
Язык комментария: отсутствует
Качество: Satrip
Формат: MKV
Видео кодек: H.264
Аудио кодек: MP3
Видео: MPEG4 Video (H264) 720х400 50 fps 2000 Kbps
Аудио: MPEG Audio Layer 3 44100Hz stereo 128Kbps
Автор: Madison
Дополнительная информация: первый тайм начинается примерно с 4-й минуты.
[spoiler="Особенности рипа"]Данный рип сделан с источника в ~9 Мб/с.
Данные медиа инфо:
General
ID : 1
Complete name : G:RecordNew folderSpartak-Marsel_1st half.ts
Format : MPEG-TS
File size : 2.51 GiB
Duration : 42mn 35s
Overall bit rate : 8 445 Kbps

Video
ID : 224 (0xE0)
Format : MPEG Video
Format version : Version 2
Format profile : Main@Main
Format settings, Matrix : Default
Duration : 42mn 36s
Bit rate mode : Constant
Nominal bit rate : 7 600 Kbps
Width : 720 pixels
Height : 576 pixels
Display aspect ratio : 16/9
Frame rate : 25.000 fps
Standard : PAL
Colorimetry : 4:2:0
Scan type : Interlaced
Scan order : Top Field First
Bits/(Pixel*Frame) : 0.733

Audio #1
ID : 192 (0xC0)
Menu ID : 258 (0x102)
Format : MPEG Audio
Format version : Version 1
Format profile : Layer 2
Duration : 42mn 36s
Bit rate mode : Constant
Bit rate : 192 Kbps
Channel(s) : 2 channels
Sampling rate : 48.0 KHz
Resolution : 16 bits
Video delay : -234ms
Stream size : 58.5 MiB (2%)
Language : German
Language, more info : Clean effects

Audio #2
ID : 193 (0xC1)
Menu ID : 258 (0x102)
Format : MPEG Audio
Format version : Version 1
Format profile : Layer 2
Duration : 42mn 36s
Bit rate mode : Constant
Bit rate : 192 Kbps
Channel(s) : 2 channels
Sampling rate : 48.0 KHz
Resolution : 16 bits
Video delay : -214ms
Stream size : 58.5 MiB (2%)
Language : German
Language, more info : Clean effects

Audio #3
ID : 224 (0xE0)
Menu ID : 258 (0x102)
Format : MPEG Video
Duration : 42mn 35s[/spoiler]
[spoiler="Составы"]
Спартак (Москва)
Основной состав
81 вр Андрей Дикань
3 зщ Мартин Штранцль
5 зщ Александр Шешуков
17 зщ Марек Сухи
19 зщ Николас Пареха
7 пз Ибсон
16 пз Евгений Макеев
64 пз Эйден Макгиди
99 пз Дмитрий Комбаров
9 нп Ари
11 нп Веллитон
8 пз Никола Дринчич
27 пз Жано Ананидзе
Запасные игроки
30 вр Сергей Песьяков
2 пз Кристиан Майдана
6 пз Ренат Сабитов
26 пз Антон Ходырев
21 нп Никита Баженов

Марсель (Франция)
Основной состав
30 вр Стив Манданда
2 зщ Сесар Аспиликуэта
19 зщ Габриэль Хайнце
21 зщ Сулейман Диавара
6 пз Эдуард Сиссе
8 пз Лучо Гонсалес
17 пз Стефан Мбиа
20 пз Андре Айю
28 пз Матье Вальбуэна
9 нп Брандао
11 нп Лоик Реми
7 пз Бенуа Шейру
18 пз Фабрис Обриэль
12 пз Шарль Каборе
Запасные игроки
16 вр Элинтон Андраде
3 зщ Тайе Тайво
14 зщ Лейти Ндиайе
15 нп Джордан Айю
[/spoiler]
[spoiler="Скриншоты"][/spoiler]
[spoiler="Счет"] Спартак (Москва) 0 - 3 Марсель (Франция)[/spoiler]


Последний раз редактировалось: Madison (2010-11-24 19:04), всего редактировалось 3 раз(а)
Profile PM
Тема закрыта