Чемпионат Англии 2011-12 / The Championship / 28 тур/ Бристоль Сити - Лидс [2012, SD, MPEG1, EN, WEB]

Тема закрыта

Автор Сообщение

Anaximandr


Стаж: 5 лет

Сообщений: 47

Испания

Торрент-статистика

post 18-Фев-2012 18:43

Quote


Чемпионат Англии 2011-12 / The Championship / 28 тур/ Бристоль Сити - Лидс

Год выпуска: 2012
Вид спорта: футбол
Участники:Бристоль и Лидс
Продолжительность: 01:38:36
Комментарий: Профессиональный (одноголосый)
Язык комментариев: английский

Описание: Лидс против Бристоля играет в матче второго по значимости дивизиона Англии

Качество: WEBRip
Формат: AVI
Видео кодек: MPEG1
Аудио кодек: MPEG2
Video: MPEG 640x360 30.00fps 1415 Кбит/сек [Stream 00]
Audio: MPEG Audio 48000Hz stereo 192 Кбит/сек [Stream 01]
Видео
Идентификатор : 0
Формат : MPEG Video
Версия формата : Version 1
Параметр BVOP формата : Нет
Параметр матрицы формата : По умолчанию
Идентификатор кодека : MPEG
Идентификатор кодека/Информация : Chromatic MPEG 1 Video I Frame
Продолжительность : 1 ч. 38 м.
Вид битрейта : Переменный
Битрейт : 1415 Кбит/сек
Ширина : 640 пикселей
Высота : 360 пикселей
Соотношение сторон : 16:9
Частота кадров : 30,000 кадров/сек
Цветовое пространство : YUV
Субдискретизация насыщенности : 4:2:0
Битовая глубина : 8 бит
Тип развёртки : Прогрессивная
Метод сжатия : С потерями
Бит/(Пиксели*Кадры) : 0.205
Размер потока : 998 Мбайт (87%)

Аудио
Идентификатор : 1
Формат : MPEG Audio
Версия формата : Version 1
Профиль формата : Layer 2
Идентификатор кодека : 50
Продолжительность : 1 ч. 38 м.
Вид битрейта : Постоянный
Битрейт : 192 Кбит/сек
Каналы : 2 канала
Частота : 48,0 КГц
Метод сжатия : С потерями
Размер потока : 135 Мбайт (12%)
Выравнивание : Соединение по промежуткам
Продолжительность промежутка : 24 мс. (0,72 видеокадр)
Время предзагрузки промежутка : 24 мс.


Bristol: James, Foster, Fontaine, Kilkenny (McGivern 46), Skuse, Cisse (Campbell-Ryce 85), Adomah, Bolasie, Wilson, Pearson, Wood (Stead 71). Subs: Gerken, Pitman

United: Lonergan, Smith, O'Dea, Lees, Pugh, Snodgrass, Clayton, Delph, White, McCormack, Becchio. Subs: Bruce, Rogers, Brown, Townsend, Taylor.
0-3

_________________
ЗАО Колдуй команда Энтертемент
Profile PM

post 15-Мар-2012 11:21 (спустя 25 дней)


Топик был перенесен из форума Football League 2011/12 в форум Архив

Rudy
 
Тема закрыта