Чемпионат Англии 2014-15 / 17-й тур / Обзор матчей / C+ Liga de Campeones HD [22.12.2014, 1080i, 25fps, h264, SP, HDTV, SATRip]

Ответить на тему

Автор Сообщение

K. Valera


Стаж: 4 года 7 месяцев

Сообщений: 781

Украина

Торрент-статистика

post 25-Дек-2014 16:54

Quote


Год выпуска: 22.12.2014
Вид спорта: Футбол
Релиз: rgfootball.net
Aвтор рипа: K. Valera
Продолжительность: 00:51:16
Комментарий: Профессиональный
Язык комментариев: Испанский
Качество: HDTV / Формат: *.ts / Видео Кодек: AVC / Аудио Кодек: AC-3
Видео: 1920x1080 (16/9), 25,000 fps, 9.8 Мбит/сек
Аудио 1: 384 Kbps, 48 KHz, Dolby AC3 2.0 channels
Аудио 2: 192 Kbps, 48 KHz, Dolby AC3 2.0 channels
Аудио 3: 155 Kbps, 48 KHz, mp2 1.0 channels
Запись видео: Openbox SX6 HD
Программа корректировки видео: Cypheros TS-Doctor ver. 1.2.22

Код:

General
ID                             : 1004 (0x3EC)
Complete name                  : D:\Видео\Чемпионат Англии 2014-15 17-й тур Обзор матчей 1080i C+.ts
Format                         : MPEG-TS
File size                      : 3.51 GiB
Duration                       : 51mn 12s
Overall bit rate mode          : Variable
Overall bit rate               : 9 819 Kbps

Video
ID                             : 160 (0xA0)
Menu ID                        : 30905 (0x78B9)
Format                         : AVC
Format/Info                    : Advanced Video Codec
Format profile                 : High@L4.0
Format settings, CABAC         : Yes
Format settings, ReFrames      : 4 frames
Format settings, GOP           : M=4, N=24
Codec ID                       : 27
Duration                       : 51mn 14s
Bit rate                       : 8 590 Kbps
Width                          : 1 920 pixels
Height                         : 1 080 pixels
Display aspect ratio           : 16:9
Frame rate                     : 25.000 fps
Color space                    : YUV
Chroma subsampling             : 4:2:0
Bit depth                      : 8 bits
Scan type                      : Interlaced
Scan order                     : Top Field First
Bits/(Pixel*Frame)             : 0.166
Stream size                    : 3.07 GiB (88%)
Encryption                     : Nagravision
Color primaries                : BT.709
Transfer characteristics       : BT.709
Matrix coefficients            : BT.709

Audio #1
ID                             : 80 (0x50)
Menu ID                        : 30905 (0x78B9)
Format                         : AC-3
Format/Info                    : Audio Coding 3
Mode extension                 : CM (complete main)
Format settings, Endianness    : Big
Codec ID                       : 6
Duration                       : 51mn 12s
Bit rate mode                  : Constant
Bit rate                       : 384 Kbps
Channel(s)                     : 2 channels
Channel positions              : Front: L R
Sampling rate                  : 48.0 KHz
Bit depth                      : 16 bits
Compression mode               : Lossy
Delay relative to video        : -454ms
Stream size                    : 141 MiB (4%)
Language                       : Spanish
Language, more info            : Clean effects
Encryption                     : Nagravision

Audio #2
ID                             : 81 (0x51)
Menu ID                        : 30905 (0x78B9)
Format                         : AC-3
Format/Info                    : Audio Coding 3
Mode extension                 : CM (complete main)
Format settings, Endianness    : Big
Codec ID                       : 6
Duration                       : 51mn 12s
Bit rate mode                  : Constant
Bit rate                       : 192 Kbps
Channel(s)                     : 2 channels
Channel positions              : Front: L R
Sampling rate                  : 48.0 KHz
Bit depth                      : 16 bits
Compression mode               : Lossy
Delay relative to video        : -334ms
Stream size                    : 70.3 MiB (2%)
Language                       : qaa
Language, more info            : Clean effects
Encryption                     : Nagravision

Audio #3
ID                             : 82 (0x52)
Menu ID                        : 30905 (0x78B9)
Format                         : MPEG Audio
Format version                 : Version 1
Format profile                 : Layer 2
Codec ID                       : 4
Duration                       : 51mn 12s
Bit rate mode                  : Constant
Bit rate                       : 160 Kbps
Channel(s)                     : 1 channel
Sampling rate                  : 48.0 KHz
Compression mode               : Lossy
Delay relative to video        : -450ms
Stream size                    : 58.6 MiB (2%)
Encryption                     : Nagravision

_________________
webmoney: R102437980674, U865336828210, Bitcoin: 1C5RGE4438bq3VfVUEfcw63rmYrb6Sgr29. Файлы не конвертирую. Готов реанимировать почти все свои раздачи.
Profile PM
Ответить на тему