Чемпионат Англии 2010-2011 / Обзоры 8-го и 9-го тура / Premier League Review 2010-2011 / Match Day 8 & 9 / Sky Sport, Спорт 1 [2010, 1080i, 720p, H.264, ITA, RUS, SAT]

Ответить на тему

Автор Сообщение

oleg_1954


Стаж: 6 лет

Сообщений: 7807

Откуда: Волгоград

Россия

Торрент-статистика

post 20-Фев-2015 17:39

Quote


Чемпионат Англии 2010-2011. Обзоры 8-го и 9-го тура
Premier League Review 2010-2011. Match Day 8 & 9

Год выпуска: 2010
Вид спорта: Футбол
Продолжительность: 00:42:14+00:51:21
Описание: Чемпионат Англии 2010-2011. Обзоры 8-го и 9-го тура
Комментарий: Итальянский, Русский (В.Стогниенко)
Качество: SATRip
Формат: TS, MKV
Видео кодек: H.264 Аудио кодек: AC3, AAC
Видео Файл 1 : MPEG4 Video H.264 1920x1080 25 fps Bit rate 10.9 Mbps Aspect Ratio 16:9
Аудио: Итальянский AC3 48000 Hz stereo 192 Kbps
Видео Файл 2: MPEG4 Video H.264 1280x720 25 fps Bit rate 2484 Kbps Aspect Ratio 16:9
Аудио: Русский AAC 48000 Hz stereo 128 Kbps
Файл "Premier League Review 2010.R08.HDTV.ts"
General
ID : 1 (0x1)
Format : MPEG-TS
File size : 3.50 GiB
Duration : 42mn 51s
Overall bit rate mode : Variable
Overall bit rate : 11.7 Mbps
Maximum Overall bit rate : 35.5 Mbps

Video
ID : 4113 (0x1011)
Menu ID : 1 (0x1)
Format : AVC
Format/Info : Advanced Video Codec
Format profile : Main@L4.0
Format settings, CABAC : Yes
Format settings, ReFrames : 4 frames
Codec ID : 27
Duration : 42mn 50s
Bit rate : 10.9 Mbps
Width : 1 920 pixels
Height : 1 080 pixels
Display aspect ratio : 16:9
Frame rate : 25.000 fps
Color space : YUV
Chroma subsampling : 4:2:0
Bit depth : 8 bits
Scan type : MBAFF
Bits/(Pixel*Frame) : 0.211
Stream size : 3.26 GiB (93%)
Color primaries : BT.709
Transfer characteristics : BT.709
Matrix coefficients : BT.709

Audio
ID : 4352 (0x1100)
Menu ID : 1 (0x1)
Format : AC-3
Format/Info : Audio Coding 3
Mode extension : CM (complete main)
Format settings, Endianness : Big
Codec ID : 129
Duration : 42mn 51s
Bit rate mode : Constant
Bit rate : 192 Kbps
Channel(s) : 2 channels
Channel positions : Front: L R
Sampling rate : 48.0 KHz
Bit depth : 16 bits
Compression mode : Lossy
Delay relative to video : -520ms
Stream size : 58.9 MiB (2%)
Файл "Premier League Review 2010.R09.HDTV.mkv"
General
Format : Matroska
Format version : Version 1
File size : 960 MiB
Duration : 51mn 21s
Overall bit rate : 2 612 Kbps
Movie name : Premier League Review 2010.R09
Encoded date : UTC 2010-10-27 18:59:00
Writing application : mkvmerge v2.4.1 ('Use Me') built on Dec 5 2008 15:43:32
Writing library : libebml v0.7.7 + libmatroska v0.8.1

Video
ID : 1
Format : AVC
Format/Info : Advanced Video Codec
Format profile : High@L4.0
Format settings, CABAC : Yes
Format settings, ReFrames : 3 frames
Codec ID : V_MPEG4/ISO/AVC
Duration : 51mn 21s
Width : 1 280 pixels
Height : 720 pixels
Display aspect ratio : 16:9
Frame rate mode : Constant
Frame rate : 25.000 fps
Color space : YUV
Chroma subsampling : 4:2:0
Bit depth : 8 bits
Scan type : Progressive
Writing library : x264 core 105 r1732 2b04482
Encoding settings : cabac=1 / ref=3 / deblock=1:0:0 / analyse=0x3:0x133 / me=umh / subme=7 / psy=1 / psy_rd=1.00:0.00 / mixed_ref=1 / me_range=16 / chroma_me=1 / trellis=1 / 8x8dct=1 / cqm=0 / deadzone=21,11 / fast_pskip=1 / chroma_qp_offset=-2 / threads=12 / sliced_threads=0 / nr=0 / decimate=1 / interlaced=0 / constrained_intra=0 / bframes=3 / b_pyramid=0 / b_adapt=1 / b_bias=0 / direct=1 / weightb=1 / open_gop=0 / weightp=2 / keyint=250 / keyint_min=25 / scenecut=40 / intra_refresh=0 / rc_lookahead=40 / rc=crf / mbtree=1 / crf=22.0 / qcomp=0.60 / qpmin=10 / qpmax=51 / qpstep=4 / vbv_maxrate=2500 / vbv_bufsize=25000 / crf_max=0.0 / ip_ratio=1.40 / aq=1:1.00 / nal_hrd=none
Language : English
Default : Yes
Forced : No

Audio
ID : 2
Format : AAC
Format/Info : Advanced Audio Codec
Format profile : LC
Codec ID : A_AAC
Duration : 51mn 21s
Channel count : 2 channels
Channel positions : Front: L R
Sampling rate : 48.0 KHz
Compression mode : Lossy
Delay relative to video : 3ms
Title : В.Стогниенко
Language : Russian
Default : Yes
Forced : No

_________________
Donate:
Sberbank 4276 1100 1055 1402
Yandexmoney 410011231407235
Profile PM
Ответить на тему