Чемпионат Англии 2010-2011 / Обзоры 11-го, 16-го и 19-го тура / Premier League Review 2010-2011 / Match Day 11, 16, 19 / Спорт 1 [2010, HD, 1080i, RUS, SAT]

Ответить на тему

Автор Сообщение

oleg_1954


Стаж: 6 лет

Сообщений: 7806

Откуда: Волгоград

Россия

Торрент-статистика

post 31-Мар-2015 20:20

Quote


Чемпионат Англии 2010-2011. Обзоры 11-го, 16-го и 19-го тура
Premier League Review 2010-2011. Match Day 11, 16, 19

Год выпуска: 2010
Вид спорта: Футбол
Продолжительность: 02:39:01
Описание: Чемпионат Англии 2010-2011. Обзоры 11-го, 16-го и 19-го тура
Комментарий: Русский (А.Осин, В.Стогниенко)
Качество: SATRip
Формат: TS
Видео кодек: H.264 Аудио кодек: MP2
Видео: MPEG4 Video H.264 1920x1080 25 fps Bit rate 10 Mbps Aspect Ratio 16:9
Аудио: Русский MP2 48000 Hz stereo 128 Kbps
Доп.инфо: Из моих архивов
General
Format : MPEG-TS
File size : 3.82 GiB
Duration : 54mn 56s
Overall bit rate mode : Variable
Overall bit rate : 9 963 Kbps

Video
ID : 1800 (0x708)
Menu ID : 120 (0x78)
Format : AVC
Format/Info : Advanced Video Codec
Format profile : High@L4.0
Format settings, CABAC : Yes
Format settings, ReFrames : 4 frames
Codec ID : 27
Duration : 54mn 56s
Bit rate : 9 342 Kbps
Width : 1 920 pixels
Height : 1 080 pixels
Display aspect ratio : 16:9
Frame rate : 25.000 fps
Standard : PAL
Color space : YUV
Chroma subsampling : 4:2:0
Bit depth : 8 bits
Scan type : Interlaced
Bits/(Pixel*Frame) : 0.180
Stream size : 3.58 GiB (94%)
Color primaries : BT.709
Transfer characteristics : BT.709
Matrix coefficients : BT.709

Audio
ID : 1810 (0x712)
Menu ID : 120 (0x78)
Format : MPEG Audio
Format version : Version 1
Format profile : Layer 2
Codec ID : 4
Duration : 54mn 55s
Bit rate mode : Constant
Bit rate : 128 Kbps
Channel(s) : 2 channels
Sampling rate : 48.0 KHz
Compression mode : Lossy
Delay relative to video : 123ms
Stream size : 50.3 MiB (1%)

_________________
Donate:
Sberbank 4276 1100 1055 1402
Yandexmoney 410011231407235


Последний раз редактировалось: oleg_1954 (2016-08-07 11:59), всего редактировалось 2 раз(а)
Profile PM

Tima Mikhaylichenko


Стаж: 2 года 2 месяца

Сообщений: 99

Великобритания

Торрент-статистика

post 01-Апр-2015 12:42 (спустя 16 часов)

Quote


Судя по скриншотам, тут прогрессивная развёртка, да?!
Profile PM

oleg_1954


Стаж: 6 лет

Сообщений: 7806

Откуда: Волгоград

Россия

Торрент-статистика

post 01-Апр-2015 15:04 (спустя 2 часа 22 минуты)

Quote


Tima Mikhaylichenko писал(а):

Судя по скриншотам, тут прогрессивная развёртка, да?!
MediaInfo: Scan type : Interlaced
Вид скриншота зависит от плеера (и настроек его), в котором он сделан. В данном случае скриншот сделан в MPC

_________________
Donate:
Sberbank 4276 1100 1055 1402
Yandexmoney 410011231407235
Profile PM
Ответить на тему