Чемпионат Англии 2010-2011 / Обзоры 2-го, 12-го, 14-го, 23-го, 24-го туров / Premier League Review 2010-2011 / Match Day 2, 12, 14, 23, 24 / Спорт 1 [2010, HD, 720p, 576i, RUS, SAT]

Ответить на тему

Автор Сообщение

oleg_1954


Стаж: 6 лет

Сообщений: 7810

Откуда: Волгоград

Россия

Торрент-статистика

post 13-Апр-2015 18:28

Quote


Чемпионат Англии 2010-2011. Обзоры 2-го, 12-го, 14-го, 23-го, 24-го туров
Premier League Review 2010-2011. Match Day 2, 12, 14, 23, 24

Год выпуска: 2010 Вид спорта: Футбол
Продолжительность: 04:14:07
Описание: Чемпионат Англии 2010-2011. Обзоры 2-го, 12-го, 14-го, 23-го, 24-го туров
Комментарий: Русский (А.Гришин, И.Казаков, А.Осин)
Качество: SATRip
Формат: TS, MPG, MKV
Видео кодек: MPEG2, H.264 Аудио кодек: MP2
Видео: MPEG4 Video 1280x720 25 fps Bit rate 2300 Kbps Aspect Ratio 16:9
Видео: MPEG2 Video 720x576 25 fps Bit rate 2600 Kbps Aspect Ratio 16:9
Аудио: Русский MP2 48000 Hz stereo 128 Kbps
Доп.инфо: Из моих архивов
General
Format : Matroska
Format version : Version 2
File size : 896 MiB
Duration : 51mn 34s
Overall bit rate mode : Variable
Overall bit rate : 2 429 Kbps
Movie name : Premier League Review 2010.R23
Encoded date : UTC 2011-01-19 13:50:09
Writing application : mkvmerge v4.0.0 ('The Stars were mine') built on Jun 6 2010 16:18:42
Writing library : libebml v1.0.0 + libmatroska v1.0.0

Video
ID : 1
Format : AVC
Format/Info : Advanced Video Codec
Format profile : High@L4.0
Format settings, CABAC : Yes
Format settings, ReFrames : 3 frames
Codec ID : V_MPEG4/ISO/AVC
Duration : 51mn 34s
Bit rate mode : Variable
Bit rate : 2 300 Kbps
Maximum bit rate : 25.0 Mbps
Width : 1 280 pixels
Height : 720 pixels
Display aspect ratio : 16:9
Frame rate mode : Constant
Frame rate : 25.000 fps
Color space : YUV
Chroma subsampling : 4:2:0
Bit depth : 8 bits
Scan type : Progressive
Bits/(Pixel*Frame) : 0.100
Stream size : 831 MiB (93%)
Writing library : x264 core 105 r1732 2b04482
Encoding settings : cabac=1 / ref=3 / deblock=1:0:0 / analyse=0x3:0x133 / me=umh / subme=7 / psy=1 / psy_rd=1.00:0.00 / mixed_ref=1 / me_range=16 / chroma_me=1 / trellis=1 / 8x8dct=1 / cqm=0 / deadzone=21,11 / fast_pskip=1 / chroma_qp_offset=-2 / threads=6 / sliced_threads=0 / nr=0 / decimate=1 / interlaced=0 / constrained_intra=0 / bframes=3 / b_pyramid=0 / b_adapt=1 / b_bias=0 / direct=1 / weightb=1 / open_gop=0 / weightp=2 / keyint=250 / keyint_min=25 / scenecut=40 / intra_refresh=0 / rc_lookahead=40 / rc=2pass / mbtree=1 / bitrate=2300 / ratetol=1.0 / qcomp=0.60 / qpmin=10 / qpmax=51 / qpstep=4 / cplxblur=20.0 / qblur=0.5 / vbv_maxrate=25000 / vbv_bufsize=25000 / ip_ratio=1.40 / aq=1:1.00 / nal_hrd=vbr
Language : English
Default : Yes
Forced : No

Audio
ID : 2
Format : MPEG Audio
Format version : Version 1
Format profile : Layer 2
Codec ID : A_MPEG/L2
Codec ID/Hint : MP2
Duration : 51mn 34s
Bit rate mode : Constant
Bit rate : 128 Kbps
Channel count : 2 channels
Sampling rate : 48.0 KHz
Compression mode : Lossy
Delay relative to video : 23ms
Stream size : 47.2 MiB (5%)
Title : И.Казаков
Language : Russian
Default : Yes
Forced : No

_________________
Donate:
Sberbank 4276 1100 1055 1402
Yandexmoney 410011231407235


Последний раз редактировалось: oleg_1954 (2015-04-13 18:34), всего редактировалось 2 раз(а)
Profile PM
Ответить на тему