Чемпионат Англии 2010-2011 / Обзоры 15-го, 31-го, 33-го, 35-го туров / Premier League Review 2010-2011 / Match Day 15, 31, 33, 35 / Спорт 1, SkySport [2010, HD, 1080i, 720p, 400p, RUS, SAT]

Ответить на тему

Автор Сообщение

oleg_1954


Стаж: 6 лет

Сообщений: 7807

Откуда: Волгоград

Россия

Торрент-статистика

post 28-Апр-2015 18:28

Quote


Чемпионат Англии 2010-2011. 15-го, 31-го, 33-го, 35-го туров
Premier League Review 2010-2011. Match Day 15, 31, 33, 35

Год выпуска: 2011 Вид спорта: Футбол
Продолжительность: 03:25:01
Описание: Чемпионат Англии 2010-2011. Обзоры 15-го, 31-го, 33-го, 35-го туров
Комментарий: Русский (В.Стогниенко, А.Осин, Р.Гатаулин)
Качество: SATRip Формат: TS, MKV, AVI
Видео кодек: MPEG2, H.264, DivXАудио кодек: MP2
Видео: MPEG4 Video 1920x1080 25 fps Bit rate 8420 Kbps Aspect Ratio 16:9
Видео: MPEG4 Video 1280x720 25 fps Bit rate 3000 Kbps Aspect Ratio 16:9
Видео: DivX Video 704x400 25 fps Bit rate 1700 Kbps Aspect Ratio 16:9
Аудио: Русский MP2 48000 Hz stereo 128 Kbps
Доп.инфо: Файл "Premier League Review 2011.R15.HDTV.ITA.RUS.ts" - 2-я зв. дорожка - русская
General
Format : MPEG-TS
File size : 3.31 GiB
Duration : 51mn 33s
Overall bit rate mode : Variable
Overall bit rate : 9 198 Kbps
Maximum Overall bit rate : 35.5 Mbps

Video
ID : 4113 (0x1011)
Menu ID : 1 (0x1)
Format : AVC
Format/Info : Advanced Video Codec
Format profile : Main@L4.0
Format settings, CABAC : Yes
Format settings, ReFrames : 4 frames
Codec ID : 27
Duration : 51mn 33s
Bit rate mode : Variable
Bit rate : 8 420 Kbps
Maximum bit rate : 40.0 Mbps
Width : 1 920 pixels
Height : 1 080 pixels
Display aspect ratio : 16:9
Frame rate : 25.000 fps
Color space : YUV
Chroma subsampling : 4:2:0
Bit depth : 8 bits
Scan type : MBAFF
Scan order : Top Field First
Bits/(Pixel*Frame) : 0.162
Stream size : 3.03 GiB (92%)
Color primaries : BT.709
Transfer characteristics : BT.709
Matrix coefficients : BT.709
Color range : Limited

Audio #1
ID : 4352 (0x1100)
Menu ID : 1 (0x1)
Format : AC-3
Format/Info : Audio Coding 3
Mode extension : CM (complete main)
Format settings, Endianness : Big
Codec ID : 129
Duration : 51mn 33s
Bit rate mode : Constant
Bit rate : 192 Kbps
Channel(s) : 2 channels
Channel positions : Front: L R
Sampling rate : 48.0 KHz
Bit depth : 16 bits
Compression mode : Lossy
Delay relative to video : 49ms
Stream size : 70.8 MiB (2%)
Language : Italian

Audio #2
ID : 4353 (0x1101)
Menu ID : 1 (0x1)
Format : MPEG Audio
Format version : Version 1
Format profile : Layer 2
Codec ID : 4
Duration : 51mn 33s
Bit rate mode : Constant
Bit rate : 128 Kbps
Channel(s) : 2 channels
Sampling rate : 48.0 KHz
Compression mode : Lossy
Delay relative to video : 47ms
Stream size : 47.2 MiB (1%)
Language : Russian

_________________
Donate:
Sberbank 4276 1100 1055 1402
Yandexmoney 410011231407235
Profile PM
Ответить на тему