Чемпионат Англии 2014-15 / 35-й тур / Preview / TV 2 Sportskanalen HD [01.05.2015, H.264, 1080i, ENG, HDTV, SAT]

Ответить на тему

Автор Сообщение

K. Valera


Стаж: 4 года 7 месяцев

Сообщений: 781

Украина

Торрент-статистика

post 02-Май-2015 12:16

Quote


Чемпионат Англии 2014-15 / 35-й тур / Preview / TV 2 Sportskanalen HD

Год выпуска: 01.05.2015
Вид спорта: Футбол
Релиз: rgfootball.net
Aвтор рипа: K. Valera
Продолжительность: 00:26:44
Комментарий: Профессиональный
Язык комментариев: Английский
Канал:
Качество: HDTV / Формат: *.ts / Видео Кодек: AVC / Аудио Кодек: MPEG
Видео: 1920x1080 (16/9), 25,000 fps, 9,7 Мбит/сек
Аудио : 256 Kbps, 48 KHz, MPEG Audio, Joint stereo, CBR (Norwegian)
Запись видео: Openbox SX6 HD
Программа корректировки видео: Cypheros TS-Doctor ver. 1.2.22

Код:

General
ID                             : 68 (0x44)
Complete name                  : E:\Premier League Preview 35 round 01.05.2015.ts
Format                         : MPEG-TS
File size                      : 1.80 GiB
Duration                       : 26mn 22s
Overall bit rate mode          : Variable
Overall bit rate               : 9 761 Kbps

Video
ID                             : 1277 (0x4FD)
Menu ID                        : 7078 (0x1BA6)
Format                         : AVC
Format/Info                    : Advanced Video Codec
Format profile                 : High@L4.0
Format settings, CABAC         : Yes
Format settings, ReFrames      : 4 frames
Format settings, GOP           : M=8, N=32
Codec ID                       : 27
Duration                       : 26mn 22s
Bit rate                       : 9 020 Kbps
Width                          : 1 280 pixels
Height                         : 720 pixels
Display aspect ratio           : 16:9
Frame rate                     : 50.000 fps
Color space                    : YUV
Chroma subsampling             : 4:2:0
Bit depth                      : 8 bits
Scan type                      : Progressive
Bits/(Pixel*Frame)             : 0.196
Stream size                    : 1.66 GiB (92%)

Audio
ID                             : 3381 (0xD35)
Menu ID                        : 7078 (0x1BA6)
Format                         : MPEG Audio
Format version                 : Version 1
Format profile                 : Layer 2
Mode                           : Joint stereo
Mode extension                 : Intensity Stereo + MS Stereo
Codec ID                       : 3
Duration                       : 26mn 22s
Bit rate mode                  : Constant
Bit rate                       : 256 Kbps
Channel(s)                     : 2 channels
Sampling rate                  : 48.0 KHz
Compression mode               : Lossy
Delay relative to video        : -1s 108ms
Stream size                    : 48.3 MiB (3%)
Language                       : Norwegian

_________________
webmoney: R102437980674, U865336828210, Bitcoin: 1C5RGE4438bq3VfVUEfcw63rmYrb6Sgr29. Файлы не конвертирую. Готов реанимировать почти все свои раздачи.
Profile PM
Ответить на тему