Чемпионат Англии 2015-16 / 14-й тур / Обзор матчей воскресенья / Match of the Day / BBC HD [29.11.2015, HD, 720p, H264, EN, SAT]

Ответить на тему

Автор Сообщение

Chameleon


Стаж: 6 лет

Сообщений: 3696

Откуда: Tyumen

Россия

Торрент-статистика

post 30-Ноя-2015 08:04

Quote




Страна: Англия.
Турнир: Чемпионат Англии 2015-16. Премьер лига. 14-й тур.
Тип передачи: Обзор матчей воскресенья. Match of the Day
Дата матча: 29.11.2015
Телеканал: BBC HD
Язык комментариев: English
Продолжительность: ***
Формат видео: MP4
Видео кодек, разрешение, ...: H264, 1280x720, 3 000 kbps, 25 fps
Аудио кодек, ...: AAC, 128 kbps, 2 ch, 48 kHz
Автор: ifv
Format : MPEG-4
Format profile : Base Media
Codec ID : isom
File size : 1.74 GiB
Duration : 1h 19mn
Overall bit rate : 3 141 Kbps
Writing application : Lavf55.12.100

Video
ID : 2
Format : AVC
Format/Info : Advanced Video Codec
Format profile : Main@L4
Format settings, CABAC : Yes
Format settings, ReFrames : 4 frames
Codec ID : avc1
Codec ID/Info : Advanced Video Coding
Duration : 1h 19mn
Bit rate : 3 000 Kbps
Width : 1 280 pixels
Height : 720 pixels
Display aspect ratio : 16:9
Frame rate mode : Variable
Frame rate : 25.000 fps
Color space : YUV
Chroma subsampling : 4:2:0
Bit depth : 8 bits
Scan type : Progressive
Bits/(Pixel*Frame) : 0.130
Stream size : 1.66 GiB (96%)
Writing library : x264 core 142 r2479 dd79a61
Encoding settings : cabac=1 / ref=1 / deblock=1:0:0 / analyse=0x1:0x111 / me=hex / subme=2 / psy=1 / psy_rd=1.00:0.00 / mixed_ref=0 / me_range=16 / chroma_me=1 / trellis=0 / 8x8dct=0 / cqm=0 / deadzone=21,11 / fast_pskip=1 / chroma_qp_offset=0 / threads=12 / lookahead_threads=4 / sliced_threads=0 / nr=0 / decimate=1 / interlaced=0 / bluray_compat=0 / constrained_intra=0 / bframes=3 / b_pyramid=2 / b_adapt=1 / b_bias=0 / direct=1 / weightb=1 / open_gop=0 / weightp=1 / keyint=250 / keyint_min=25 / scenecut=40 / intra_refresh=0 / rc_lookahead=10 / rc=abr / mbtree=1 / bitrate=3000 / ratetol=1.0 / qcomp=0.60 / qpmin=0 / qpmax=69 / qpstep=4 / vbv_maxrate=20000 / vbv_bufsize=25000 / nal_hrd=none / filler=0 / ip_ratio=1.40 / aq=1:1.00
Color range : Limited
Color primaries : BT.709
Transfer characteristics : BT.709
Matrix coefficients : BT.709

Audio
ID : 1
Format : AAC
Format/Info : Advanced Audio Codec
Format profile : LC
Codec ID : 40
Duration : 1h 19mn
Duration_LastFrame : -9ms
Bit rate mode : Constant
Bit rate : 128 Kbps
Channel(s) : 2 channels
Channel positions : Front: L R
Sampling rate : 48.0 KHz
Compression mode : Lossy
Stream size : 72.4 MiB (4%)

01:19:05

Скриншоты:

_________________
Насчет матчей чемпионата Аргентины, Бразилии, Южной Кореи и других лиг пишите в ЛС.
Profile PM

aquilon84


Стаж: 5 лет 5 месяцев

Сообщений: 23

Торрент-статистика

post 01-Дек-2015 00:25 (спустя 16 часов)

Quote


Битое видео (кодеки обновлял).
Profile PM

Chameleon


Стаж: 6 лет

Сообщений: 3696

Откуда: Tyumen

Россия

Торрент-статистика

post 01-Дек-2015 06:40 (спустя 6 часов)

Quote


aquilon84
Попробуйте перекачать. Никто кроме Вас не жаловался.

_________________
Насчет матчей чемпионата Аргентины, Бразилии, Южной Кореи и других лиг пишите в ЛС.
Profile PM
Ответить на тему