Чемпионат Англии 2015-16 / 15-й тур / Обзор матчей субботы / Match of the Day / BBC HD [05.12.2015, HD, 720p, H264, EN, SAT]

Ответить на тему

Автор Сообщение

Chameleon


Стаж: 6 лет

Сообщений: 3696

Откуда: Tyumen

Россия

Торрент-статистика

post 06-Дек-2015 09:13

Quote




Страна: Англия.
Турнир: Чемпионат Англии 2015-16. Премьер лига. 15-й тур.
Тип передачи: Обзор матчей субботы. Match of the Day
Дата матча: 05.12.2015
Телеканал: BBC HD
Язык комментариев: English
Продолжительность: ***
Формат видео: MP4
Видео кодек, разрешение, ...: H264, 1280x720, 3 900 kbps, 25 fps
Аудио кодек, ...: AAC, 125 kbps, 2 ch, 48 kHz
Автор: ifv
Format : MPEG-4
Format profile : Base Media
Codec ID : isom
File size : 2.50 GiB
Duration : 1h 29mn
Overall bit rate mode : Variable
Overall bit rate : 4 022 Kbps
Writing application : Lavf55.12.100

Video
ID : 2
Format : AVC
Format/Info : Advanced Video Codec
Format profile : Main@L3.1
Format settings, CABAC : Yes
Format settings, ReFrames : 3 frames
Codec ID : avc1
Codec ID/Info : Advanced Video Coding
Duration : 1h 29mn
Bit rate mode : Variable
Bit rate : 3 891 Kbps
Width : 1 280 pixels
Height : 720 pixels
Display aspect ratio : 16:9
Frame rate mode : Constant
Frame rate : 25.000 fps
Standard : Component
Color space : YUV
Chroma subsampling : 4:2:0
Bit depth : 8 bits
Scan type : Progressive
Bits/(Pixel*Frame) : 0.169
Stream size : 2.42 GiB (97%)
Color range : Limited
Color primaries : BT.709
Transfer characteristics : BT.709
Matrix coefficients : BT.709

Audio
ID : 1
Format : AAC
Format/Info : Advanced Audio Codec
Format profile : LC
Codec ID : 40
Duration : 1h 29mn
Duration_LastFrame : -221ms
Bit rate mode : Constant
Bit rate : 125 Kbps
Channel(s) : 2 channels
Channel positions : Front: L R
Sampling rate : 48.0 KHz
Compression mode : Lossy
Stream size : 79.9 MiB (3%)
Language : English

01:29:03

Скриншоты:

_________________
Насчет матчей чемпионата Аргентины, Бразилии, Южной Кореи и других лиг пишите в ЛС.


Последний раз редактировалось: Chameleon (2015-12-07 07:23), всего редактировалось 1 раз
Profile PM

shain88


Стаж: 1 год

Сообщений: 2

Азербайджан

Торрент-статистика

post 06-Дек-2015 12:02 (спустя 2 часа 48 минут)

Quote


big thanx

_________________
thanx
Profile PM
Ответить на тему