Чемпионат Англии 2015-16 / Мир Премьер-Лиги / Premier League World Emisión 8 / Canal+ Fútbol HD [18.02.2016, 1080i, H.264, ES, HDTV, SAT]

Ответить на тему

Автор Сообщение

K. Valera


Стаж: 4 года 7 месяцев

Сообщений: 778

Украина

Торрент-статистика

post 20-Фев-2016 14:06

Quote


Чемпионат Англии 2015-16 / Мир Премьер-Лиги / Premier League World Emisión 8 / Canal+ Fútbol HD

Год выпуска: 18.02.2016
Вид : Футбол
Релиз:
Aвтор рипа: K. Valera
Продолжительность: 00:25:28
Канал:
Комментарий: Профессиональный
Язык комментариев: Испанский
Качество: HDTV / Формат: *.ts / Видео Кодек: AVC / Аудио Кодек: MPEG, AC-3
Видео: 1920x1080 (16/9), 25,000 fps, 7 574 Kbps
Аудио 1: 192 Kbps, 48 KHz, Dolby AC-3 2.0 channels Испанский
Аудио 2: 192 Kbps, 48 KHz, Dolby AC-3 2.0 channels Испанский
Запись видео: Openbox SX6 HD
Программа корректировки видео: Cypheros TS-Doctor ver. 1.2.22

Код:

General
ID                             : 1056 (0x420)
Complete name                  : E:\Premier League World Emision 8.ts
Format                         : MPEG-TS
File size                      : 1.49 GiB
Duration                       : 25mn 27s
Overall bit rate               : 8 376 Kbps

Video
ID                             : 161 (0xA1)
Menu ID                        : 29951 (0x74FF)
Format                         : AVC
Format/Info                    : Advanced Video Codec
Format profile                 : High@L4
Format settings, CABAC         : Yes
Format settings, ReFrames      : 4 frames
Codec ID                       : 27
Duration                       : 25mn 27s
Bit rate                       : 7 574 Kbps
Width                          : 1 920 pixels
Height                         : 1 080 pixels
Display aspect ratio           : 16:9
Frame rate                     : 25.000 fps
Color space                    : YUV
Chroma subsampling             : 4:2:0
Bit depth                      : 8 bits
Scan type                      : MBAFF
Scan order                     : Top Field First
Bits/(Pixel*Frame)             : 0.146
Stream size                    : 1.35 GiB (90%)
Encryption                     : Nagravision
Color range                    : Limited
Color primaries                : BT.709
Transfer characteristics       : BT.709
Matrix coefficients            : BT.709

Audio #1
ID                             : 86 (0x56)
Menu ID                        : 29951 (0x74FF)
Format                         : AC-3
Format/Info                    : Audio Coding 3
Mode extension                 : CM (complete main)
Format settings, Endianness    : Big
Codec ID                       : 6
Duration                       : 25mn 27s
Bit rate mode                  : Constant
Bit rate                       : 192 Kbps
Channel(s)                     : 2 channels
Channel positions              : Front: L R
Sampling rate                  : 48.0 KHz
Compression mode               : Lossy
Delay relative to video        : 52ms
Stream size                    : 35.0 MiB (2%)
Language                       : Spanish
Encryption                     : Nagravision

Audio #2
ID                             : 87 (0x57)
Menu ID                        : 29951 (0x74FF)
Format                         : AC-3
Format/Info                    : Audio Coding 3
Mode extension                 : CM (complete main)
Format settings, Endianness    : Big
Codec ID                       : 6
Duration                       : 25mn 27s
Bit rate mode                  : Constant
Bit rate                       : 192 Kbps
Channel(s)                     : 2 channels
Channel positions              : Front: L R
Sampling rate                  : 48.0 KHz
Compression mode               : Lossy
Delay relative to video        : 12ms
Stream size                    : 35.0 MiB (2%)
Language                       : qaa
Language, more info            : Clean effects
Encryption                     : Nagravision
Скриншоты


_________________
webmoney: R102437980674, U865336828210, Bitcoin: 1C5RGE4438bq3VfVUEfcw63rmYrb6Sgr29. Файлы не конвертирую. Готов реанимировать почти все свои раздачи.
Profile PM
Ответить на тему